Фунт плоти / Pound Of Flesh (Эрни Барбараш / Ernie Barbarash) [2015, Канада, боевик, криминал, BDRip-AVC] DVO (ColdFilm) + Sub (Rus, Eng) + Original Eng

 
Автор Сообщение

TorrentFilm ®

Пол:

Стаж: 2 года

Сообщений: 7741



Награды: Нет

Торрент-статистика

Создавать темы 24-Июн-2015 00:09

[Цитировать]

Фунт плоти / Pound Of Flesh
Страна: Канада
Жанр: боевик, криминал
Год выпуска: 2015
Продолжительность: 01:44:24
Перевод: Любительский (двухголосый закадровый) ColdFilm
Cубтитры: Русские, Английские
Оригинальная аудиодорожка: английский
Режиссер: Эрни Барбараш / Ernie Barbarash
В ролях: Жан-Клод Ван Дамм, Даррен Шалави, Джон Ралстон, Джейсон Дж. Тобин, Кевин Ли, Шарлотта Питерс, Аки Алеонг, Темур Мамисашвили, Майк Лидер, Филипп Жоли
Описание: Однажды ночью главный герой спасает женщину, но на следующее утро просыпается в номере отеля и обнаруживает, что лежит в ванной весь в крови и без одной почки…
Сэмпл:

Качество видео: BDRip-AVC / Pound.of.Flesh.2015.1080p.BluRay.REMUX.AVC.DTS-HD.MA.5.1-RARBG
Формат видео: MKV
Видео: MPEG-4 AVC Video / 2343 Кбит/сек / 1120x630 / 23.976 / 16:9 / High Profile 4.1
Аудио 1: AC3 / Dolby Digital Audio / 2.0 / 48 kHz / 192 kbps |DVO ColdFilm|
Аудио 2: AC3 / Dolby Digital Audio / 5.1 / 48 kHz / 448 kbps |Original|
Формат субтитров: softsub (SRT)

FAQ по просмотру MKV/h.264/AAC

•Смогу ли я запустить AVC фильм на своём компьютере?
•Сампл из раздачи не воспроизводится/тормозит или отсутствует звук/изображение. Что делать?
•Что такое H.264/AVC и зачем он нужен?
•Что за дурацкий формат .MKV?
•Почему MKV? Чем AVI хуже?
•Не могу переключить/включить/выключить аудио/видео дорожки и/или субтитры. Что делать?
•Как сделать так, чтобы по умолчанию при просмотре MKV файлов нужные/ненужные субтитры были включены/выключены, и/или сразу проигрывалась дорожка на нужном мне языке?
•Будут ли фильмы в таком формате проигрываться на бытовых плеерах без компьютера?
•Проигрываю фильм, а картинка очень сильно отличается от скринов/бледная/перенасыщенная. Что не так?
•Можно ли сконвертировать AVC в DVD?
•Почему сплюснута картинка / в характеристиках видео указано два разрешения / что такое анаморфное разрешение?
•Зачем релизёры обманывают качающих и пишут в заголовке 720p/1080p, а на самом деле раздают видеоматериалы в непонятных разрешениях?
•Можно ли вывести многоканальный FLAC/AAC-звук на внешний ресивер?
•У меня 2-канальная акустика/стереонаушники. При просмотре видео почти не слышно/совсем не слышно речь/разговоры, играют только фоновые звуки. Что делать?
•У меня стоит CoreAVC версии 1.9.5 или младше. При воспроизведении картинка рассыпается на квадраты и разноцветные пятна. Кривой рип?
•Всё прочитал(-а), решения своей проблемы не нашёл(-шла)/не смог(-ла) разобраться. Что делать?

MediaInfo

General
Unique ID                                : 219472915490726161942460741395674477800 (0xA51CF22C9171BE3C86C95C3C1116B4E8)
Complete name                            : C:\Users\pim72\Desktop\раздачи\Pound Of Flesh.2015.BDRip-AVC_[torrentfilm.net].mkv
Format                                   : Matroska
Format version                           : Version 4 / Version 2
File size                                : 2.17 GiB
Duration                                 : 1h 44mn
Overall bit rate                         : 2 982 Kbps
Movie name                               : Pound Of Flesh.2015
Encoded date                             : UTC 2015-06-19 10:57:33
Writing application                      : mkvmerge v7.9.0 ('Birds') 64bit
Writing library                          : libebml v1.3.1 + libmatroska v1.4.2
DURATION                                 : 01:38:29.814000000
NUMBER_OF_FRAMES                         : 831
NUMBER_OF_BYTES                          : 31159
_STATISTICS_WRITING_APP                  : mkvmerge v7.9.0 ('Birds') 64bit
_STATISTICS_WRITING_DATE_UTC             : 2015-06-19 10:57:33
_STATISTICS_TAGS                         : BPS DURATION NUMBER_OF_FRAMES NUMBER_OF_BYTES
Attachment                               : Yes
Video
ID                                       : 1
Format                                   : AVC
Format/Info                              : Advanced Video Codec
Format profile                           : High@L4.1
Format settings, CABAC                   : Yes
Format settings, ReFrames                : 11 frames
Codec ID                                 : V_MPEG4/ISO/AVC
Duration                                 : 1h 44mn
Bit rate                                 : 2 343 Kbps
Width                                    : 1 120 pixels
Height                                   : 630 pixels
Display aspect ratio                     : 16:9
Frame rate mode                          : Constant
Frame rate                               : 23.976 fps
Color space                              : YUV
Chroma subsampling                       : 4:2:0
Bit depth                                : 8 bits
Scan type                                : Progressive
Bits/(Pixel*Frame)                       : 0.138
Stream size                              : 1.66 GiB (77%)
Title                                    : Pound Of Flesh.2015.BDRip-AVC_[torrentfilm.net]
Writing library                          : x264 core 146 r2538 121396c
Encoding settings                        : cabac=1 / ref=11 / deblock=1:-2:-1 / analyse=0x3:0x133 / me=umh / subme=11 / psy=1 / psy_rd=0.95:0.15 / mixed_ref=1 / me_range=32 / chroma_me=1 / trellis=2 / 8x8dct=1 / cqm=0 / deadzone=21,11 / fast_pskip=0 / chroma_qp_offset=-3 / threads=6 / lookahead_threads=1 / sliced_threads=0 / nr=0 / decimate=1 / interlaced=0 / bluray_compat=0 / constrained_intra=0 / bframes=7 / b_pyramid=2 / b_adapt=2 / b_bias=0 / direct=3 / weightb=1 / open_gop=0 / weightp=2 / keyint=240 / keyint_min=23 / scenecut=40 / intra_refresh=0 / rc_lookahead=40 / rc=2pass / mbtree=1 / bitrate=2343 / ratetol=1.0 / qcomp=0.60 / qpmin=0 / qpmax=69 / qpstep=4 / cplxblur=20.0 / qblur=0.5 / ip_ratio=1.40 / aq=2:0.90
Language                                 : English
Default                                  : Yes
Forced                                   : No
Audio #1
ID                                       : 2
Format                                   : AC-3
Format/Info                              : Audio Coding 3
Mode extension                           : CM (complete main)
Format settings, Endianness              : Big
Codec ID                                 : A_AC3
Duration                                 : 1h 44mn
Bit rate mode                            : Constant
Bit rate                                 : 192 Kbps
Channel(s)                               : 2 channels
Channel positions                        : Front: L R
Sampling rate                            : 48.0 KHz
Bit depth                                : 16 bits
Compression mode                         : Lossy
Stream size                              : 143 MiB (6%)
Title                                    : Любительский (двухголосый закадровый) ColdFilm
Language                                 : Russian
Default                                  : Yes
Forced                                   : No
Audio #2
ID                                       : 3
Format                                   : AC-3
Format/Info                              : Audio Coding 3
Mode extension                           : CM (complete main)
Format settings, Endianness              : Big
Codec ID                                 : A_AC3
Duration                                 : 1h 44mn
Bit rate mode                            : Constant
Bit rate                                 : 448 Kbps
Channel(s)                               : 6 channels
Channel positions                        : Front: L C R, Side: L R, LFE
Sampling rate                            : 48.0 KHz
Bit depth                                : 16 bits
Compression mode                         : Lossy
Stream size                              : 335 MiB (15%)
Language                                 : English
Default                                  : No
Forced                                   : No
Text #1
ID                                       : 4
Format                                   : UTF-8
Codec ID                                 : S_TEXT/UTF8
Codec ID/Info                            : UTF-8 Plain Text
Language                                 : Russian
Default                                  : No
Forced                                   : No
Text #2
ID                                       : 5
Format                                   : UTF-8
Codec ID                                 : S_TEXT/UTF8
Codec ID/Info                            : UTF-8 Plain Text
Language                                 : English
Default                                  : No
Forced                                   : No
Menu
00:00:00.000                             : en:00:00:00.000
00:07:08.762                             : en:00:07:08.762
00:12:44.555                             : en:00:12:44.555
00:26:53.654                             : en:00:26:53.654
00:31:38.772                             : en:00:31:38.772
00:43:34.987                             : en:00:43:34.987
00:53:56.358                             : en:00:53:56.358
01:03:47.782                             : en:01:03:47.782
01:14:44.397                             : en:01:14:44.397
01:23:51.985                             : en:01:23:51.985
01:34:51.811                             : en:01:34:51.811
01:39:59.118                             : en:01:39:59.118

Скриншоты

[Профиль] [ЛС]
Кто просматривает тему:

Показать сообщения:    

Текущее время: Сегодня 02:15

Часовой пояс: GMT



Вы не можете начинать темы
Вы не можете отвечать на сообщения
Вы не можете редактировать свои сообщения
Вы не можете удалять свои сообщения
Вы не можете голосовать в опросах
Вы не можете прикреплять файлы к сообщениям
Вы не можете скачивать файлы