Фунт плоти / Pound Of Flesh (Эрни Барбараш / Ernie Barbarash) [2015, Канада, боевик, криминал, HDRip] DVO

 
Автор Сообщение

TorrentFilm ®

Пол:

Стаж: 2 года

Сообщений: 7741



Награды: Нет

Торрент-статистика

Создавать темы 19-Июн-2015 00:08

[Цитировать]

Фунт плоти / Pound Of Flesh
Страна: Канада
Жанр: боевик, криминал
Год выпуска: 2015
Продолжительность: 01:44:24
Перевод: Любительский (двухголосый закадровый) ColdFilm
Cубтитры: нет
Режиссер: Эрни Барбараш / Ernie Barbarash
В ролях: Жан-Клод Ван Дамм, Даррен Шалави, Джон Ралстон, Джейсон Дж. Тобин, Кевин Ли, Шарлотта Питерс, Аки Алеонг, Темур Мамисашвили, Майк Лидер, Филипп Жоли
Описание: Однажды ночью главный герой спасает женщину, но на следующее утро просыпается в номере отеля и обнаруживает, что лежит в ванной весь в крови и без одной почки…


Сэмпл
Качество видео: HDRip (исходник BDRip/1080p/hdreactor)
Формат видео: AVI
Видео: XviD MPEG-4, 624x352 (1.77:1), 23.976 fps, 888 kbps avg
Аудио: MPEG Layer 3, 44.100 kHz, ~112.00 kbps avg, 2 ch

MediaInfo

General
Complete name : D:\Pound Of Flesh.HDRip.2015.by.ALGORITM.avi
Format : AVI
Format/Info : Audio Video Interleave
File size : 754 MiB
Duration : 1h 44mn
Overall bit rate : 1 010 Kbps
Writing application : VirtualDubMod 1.5.10.2 (build 2540/release)
Writing library : VirtualDubMod build 2540/release
Video
ID : 0
Format : MPEG-4 Visual
Format profile : Advanced Simple@L5
Format settings, BVOP : 2
Format settings, QPel : No
Format settings, GMC : No warppoints
Format settings, Matrix : Default (H.263)
Muxing mode : Packed bitstream
Codec ID : XVID
Codec ID/Hint : XviD
Duration : 1h 44mn
Bit rate : 888 Kbps
Width : 624 pixels
Height : 352 pixels
Display aspect ratio : 16:9
Frame rate : 23.976 fps
Color space : YUV
Chroma subsampling : 4:2:0
Bit depth : 8 bits
Scan type : Progressive
Compression mode : Lossy
Bits/(Pixel*Frame) : 0.169
Stream size : 663 MiB (88%)
Writing library : XviD 73
Audio
ID : 1
Format : MPEG Audio
Format version : Version 1
Format profile : Layer 3
Mode : Joint stereo
Mode extension : MS Stereo
Codec ID : 55
Codec ID/Hint : MP3
Duration : 1h 44mn
Bit rate mode : Constant
Bit rate : 112 Kbps
Channel(s) : 2 channels
Sampling rate : 44.1 KHz
Compression mode : Lossy
Stream size : 83.6 MiB (11%)
Alignment : Split accross interleaves
Interleave, duration : 42 ms (1.00 video frame)
Interleave, preload duration : 500 ms
Writing library : LAME3.99r
Encoding settings : -m j -V 4 -q 3 -lowpass 15.6 -b 112

Скриншот c названием фильма

Скриншоты

[Профиль] [ЛС]
Кто просматривает тему:

Показать сообщения:    

Текущее время: Сегодня 20:24

Часовой пояс: GMT



Вы не можете начинать темы
Вы не можете отвечать на сообщения
Вы не можете редактировать свои сообщения
Вы не можете удалять свои сообщения
Вы не можете голосовать в опросах
Вы не можете прикреплять файлы к сообщениям
Вы не можете скачивать файлы