Фрэнк / Frank (2014) BDRip-AVC 720p | ATV | P | Лицензия

 
Автор Сообщение

sergej644 ®

Пол:

Стаж: 4 года 11 месяцев

Сообщений: 6041

Откуда: Soviet Union



Награды: Нет

Торрент-статистика

Создавать темы 10-Фев-2015 13:14

[Цитировать]

Фрэнк / Frank (2014) BDRip-AVC 720p | ATV | P | Лицензия
«On May 9, take off the mask»
-Год выпуска: 2014
Производство: Великобритания, Ирландия / © 2013 EP Frank Limited, Channel Four Television Corporation and the British Film Institute
Жанр: драма, комедия, детектив
Режиссер: Леонард Абрахамсон
В ролях: Донал Глисон, Мэгги Джилленхол, Скут МакНэйри, Майкл Фассбендер, Мойра Брукер, Пол Баттерворф, Фил Кингстон, Билли Трэйнор, Шэйн О’Брайэн, Франсуа Сивиль
Описание:
The Freshies - так называлась группа, существовавшая в Британии в 70-х годах. Фрэнк Сайдботтом - выдающийся комик и певец был ее фронтменом. Стоит сказать, что он был тем еще уникумом: Фрэнк любил эпатировать публику. Нацепить на себя голову куклы-исполина во время концерта и не только - это в его стиле. Авторы киноленты решили не снимать биографию музыканта, любившего заявить о себе во весь голос. Они позаимствовали у Сайдботтома необычный имидж и превратили его в американца. Они выдумали из ряда вон выходящую историю - безумную с веселой музыкой. Начало истории: в группу приходит новичок по имени Джон. Он подбивает музыкантов на то, что изменить старому-доброму инди-року и податься в коммерческую попсу. Но может ли такое предложение понравиться Фрэнку..?

Продолжительность: 01:35:05
Перевод: Профессиональный (многоголосый закадровый) [Лицензия]
Cубтитры: Русские, Английские
Качество: BDRip
Видео: MPEG-4 AVC/H.264, 1280x544 (2.35:1), 3 900 kbps, 23.976 fps
Аудио 1: Русский/Профессиональный (многоголосый закадровый), AAC / 2.0 / 136 Kbps / 48.0 KHz
Аудио 2: Русский/Профессиональный (многоголосый закадровый), AC3 / 5.1 / 384 Kbps / 48.0 KHz
Аудио 3: Английский/Оригинальный, AAC / 2.0 / 132 Kbps / 48.0 KHz
Аудио 4: Английский/Оригинальный, AC3 / 5.1 / 448 Kbps / 48.0 KHz-

iTunes Meta Tags

Sort Name: Frank
XID: Apple:vendor_id:2014-506058
Content ID: 910648115
Copyright: © 2013 EP Frank Limited, Channel Four Television Corporation and the British Film Institute
ScreenWriters: Джон Ронсон, Питер Строхан
Producers: Дэвид Баррон, Эд Гуене, Стиви Ли
Director: Леонард Абрахамсон
Cast: Michael Fassbender (Frank), Maggie Gyllenhaal (Clara), Domhnall Gleeson (Jon), Scoot McNairy (Don), Hayley Derryberry
Rating: 15
Long Deion: В центре истории окажется молодой парень, жаждущий стать музыкантом и попадающий в состав эксцентричной поп-группы, возглавляет которую таинственный и загадочный Фрэнк.
Deion: В центре истории окажется молодой парень, жаждущий стать музыкантом и попадающий в состав эксцентричной поп-группы, возглавляет которую таинственный и загадочный Фрэнк.
Release Date: 2014-05-09T07:00:00Z
Genre: Comedy
Artist: Lenny Abrahamson
Name: Фрэнк
Comments: «On May 9, take off the mask»

MediaInfo

General
Complete name : I:modoutFrank.2014.BDRip.720p.P.m4v
Format : MPEG-4
Codec ID : M4V
File size : 3.31 GiB
Duration : 1h 35mn
Overall bit rate mode : Variable
Overall bit rate : 4 988 Kbps
Movie name : Фрэнк
Performer : Lenny Abrahamson
Genre : Comedy
ContentType : Short Film
Deion : В центре истории окажется молодой парень, жаждущий стать музыкантом и попадающий в состав эксцентричной поп-группы, возглавляет которую таинственный и загадочный Фрэнк.
Recorded date : UTC 2014-05-09 07:00:00
Encoded date : UTC 2014-10-08 09:24:25
Tagged date : UTC 2014-10-08 09:26:41
Copyright : © 2013 EP Frank Limited, Channel Four Television Corporation and the British Film Institute
Cover : Yes
Comment : «On May 9, take off the mask»
ContentRating : uk-movie|15|350|
Title/Sort : Frank
LongDeion : В центре истории окажется молодой парень, жаждущий стать музыкантом и попадающий в состав эксцентричной поп-группы, возглавляет которую таинственный и загадочный Фрэнк.
HDVideo : Yes
AppleStoreCatalogID : 910648115
Vendor : Apple:vendor_id:2014-506058
Video
ID : 1
Format : AVC
Format/Info : Advanced Video Codec
Format profile : High@L4.1
Format settings, CABAC : Yes
Format settings, ReFrames : 9 frames
Codec ID : avc1
Codec ID/Info : Advanced Video Coding
Duration : 1h 35mn
Bit rate : 3 872 Kbps
Maximum bit rate : 24.1 Mbps
Width : 1 280 pixels
Height : 544 pixels
Display aspect ratio : 2.35:1
Frame rate mode : Constant
Frame rate : 23.976 fps
Color space : YUV
Chroma subsampling : 4:2:0
Bit depth : 8 bits
Scan type : Progressive
Bits/(Pixel*Frame) : 0.232
Stream size : 2.57 GiB (78%)
Title : Frank.2014
Language : English
Encoded date : UTC 2014-10-08 09:24:25
Tagged date : UTC 2014-10-08 09:24:52
Color primaries : BT.709
Transfer characteristics : BT.709
Matrix coefficients : BT.709
Audio #1
ID : 2
Format : AAC
Format/Info : Advanced Audio Codec
Format profile : LC
Codec ID : 40
Duration : 1h 35mn
Bit rate mode : Variable
Bit rate : 137 Kbps
Maximum bit rate : 198 Kbps
Channel(s) : 2 channels
Channel positions : Front: L R
Sampling rate : 48.0 KHz
Compression mode : Lossy
Stream size : 93.4 MiB (3%)
Title : AAC MVO
Language : Russian
Encoded date : UTC 2014-10-08 09:19:32
Tagged date : UTC 2014-10-08 09:24:52
Audio #2
ID : 3
Format : AC-3
Format/Info : Audio Coding 3
Mode extension : CM (complete main)
Format settings, Endianness : Big
Codec ID : ac-3
Duration : 1h 35mn
Bit rate mode : Constant
Bit rate : 384 Kbps
Channel(s) : 6 channels
Channel positions : Front: L C R, Side: L R, LFE
Sampling rate : 48.0 KHz
Bit depth : 16 bits
Compression mode : Lossy
Stream size : 261 MiB (8%)
Title : AC3 MVO
Language : Russian
Encoded date : UTC 2014-10-08 09:24:47
Tagged date : UTC 2014-10-08 09:24:52
Audio #3
ID : 4
Format : AAC
Format/Info : Advanced Audio Codec
Format profile : LC
Codec ID : 40
Duration : 1h 35mn
Bit rate mode : Variable
Bit rate : 132 Kbps
Maximum bit rate : 191 Kbps
Channel(s) : 2 channels
Channel positions : Front: L R
Sampling rate : 48.0 KHz
Compression mode : Lossy
Stream size : 91.5 MiB (3%)
Title : AAC original
Language : English
Encoded date : UTC 2014-10-08 09:22:43
Tagged date : UTC 2014-10-08 09:24:52
Audio #4
ID : 5
Format : AC-3
Format/Info : Audio Coding 3
Mode extension : CM (complete main)
Format settings, Endianness : Big
Codec ID : ac-3
Duration : 1h 35mn
Bit rate mode : Constant
Bit rate : 448 Kbps
Channel(s) : 6 channels
Channel positions : Front: L C R, Side: L R, LFE
Sampling rate : 48.0 KHz
Bit depth : 16 bits
Compression mode : Lossy
Stream size : 305 MiB (9%)
Title : AC3 original
Language : English
Encoded date : UTC 2014-10-08 09:24:50
Tagged date : UTC 2014-10-08 09:24:52
Text #1
ID : 6
Format : Timed Text
Muxing mode : sbtl
Codec ID : tx3g
Duration : 1h 31mn
Bit rate mode : Variable
Bit rate : 98 bps
Stream size : 65.7 KiB (0%)
Title : notabenoid
Language : Russian
Encoded date : UTC 2014-10-08 09:24:52
Tagged date : UTC 2014-10-08 09:24:52
Text #2
ID : 7
Format : Timed Text
Muxing mode : sbtl
Codec ID : tx3g
Duration : 1h 34mn
Bit rate mode : Variable
Bit rate : 58 bps
Stream size : 40.6 KiB (0%)
Language : English
Encoded date : UTC 2014-10-08 09:24:52
Tagged date : UTC 2014-10-08 09:24:52
Menu
ID : 8
Codec ID : text
Duration : 1h 35mn
Encoded date : UTC 2014-10-08 09:25:21
Tagged date : UTC 2014-10-08 09:25:21
Bit rate mode : VBR

x264 лог

x264 [info]: frame I:1233 Avg QP:13.73 size:150902
x264 [info]: frame P:26650 Avg QP:17.58 size: 45150
x264 [info]: frame B:108918 Avg QP:19.16 size: 12599
x264 [info]: consecutive B-frames: 1.9% 2.5% 5.6% 12.6% 13.9% 41.1% 8.6% 2.5% 5.7% 0.8% 0.6% 0.3% 0.7% 2.5% 0.8%
x264 [info]: mb I I16..4: 23.7% 44.4% 32.0%
x264 [info]: mb P I16..4: 0.5% 4.8% 1.5% P16..4: 28.1% 35.5% 16.8% 6.2% 1.5% skip: 5.2%
x264 [info]: mb B I16..4: 0.0% 0.4% 0.1% B16..8: 34.9% 20.3% 3.2% direct: 6.2% skip:34.9% L0:41.2% L1:43.3% BI:15.5%
x264 [info]: 8x8 transform intra:62.2% inter:39.5%
x264 [info]: coded y,uvDC,uvAC intra: 96.3% 65.3% 47.5% inter: 22.9% 9.3% 4.3%
x264 [info]: i16 v,h,dc,p: 7% 7% 36% 51%
x264 [info]: i8 v,h,dc,ddl,ddr,vr,hd,vl,hu: 12% 13% 10% 9% 11% 11% 11% 11% 12%
x264 [info]: i4 v,h,dc,ddl,ddr,vr,hd,vl,hu: 11% 12% 6% 9% 13% 12% 12% 11% 13%
x264 [info]: i8c dc,h,v,p: 33% 35% 19% 13%
x264 [info]: Weighted P-Frames: Y:2.2% UV:0.9%
x264 [info]: ref P L0: 54.3% 8.1% 16.0% 7.1% 4.9% 3.5% 2.8% 1.6% 1.4% 0.1% 0.0%
x264 [info]: ref B L0: 78.5% 9.8% 5.2% 2.4% 1.6% 1.2% 1.0% 0.4%
x264 [info]: ref B L1: 92.7% 7.3%
x264 [info]: kb/s:3872.03

Screenshots

[Профиль] [ЛС]
Кто просматривает тему:

Форум Тема Автор Размер
Документальные HD «Дюна» Ходоровского / Jodorowsky\'s Dune (Фрэнк Павич / Frank Pavich) [2013, Документальный, кинематограф, история, BDRip 720p] rus sub + Original TorrentFilm 4.94 GB
Фильмы (HD Rips | 720p, 1080p) Белый плен / Eight Below (Фрэнк Маршалл / Frank Marshall) [2006, США, драма, мелодрама, приключения, BDRip 1080p] Dub + AVO (Немахов) + Original (Eng) + Sub (Rus, Eng) bot 11.47 GB
Фильмы 2011 года Белый плен / Eight Below (Фрэнк Маршалл / Frank Marshall) [2006, США, драма, мелодрама, приключения, BDRip] Dub + Sub (Rus) painkiller 1.46 GB
Фильмы 2011 года Белый плен / Eight Below (Фрэнк Маршалл / Frank Marshall) [2006, США, мелодрама, драма, приключения, BDRip-AVC] Dub + Original Eng + Sub TorrentFilm 2.18 GB
Бокс, Бои без правил, К1 Бокс. Фёдор Чудинов - Фрэнк Бульони [26.09] (2015) HDTV 1080i Russian Mafia 4.94 GB
Фильмы 2014 года Витце / W. - Witse de film (Фрэнк Ван Мешлен / Frank van Mechelen) [2014, Бельгия, Триллер, детектив, DVDRip] VO (datynet) TorrentFilm 1.46 GB
Зарубежные Гoрод грeхов 2: Женщина, ради которой стоит убивать в 3Д / Sin City: A Dame to Kill For 3D (Фрэнк Миллер, Роберт / Frank Miller, Robert Rodriguez ) [2014, Боевик, триллер, криминал, BDremux, 1080p]... TorrentFilm 31.61 GB
Зарубежные Город грехов 2: Женщина, ради которой стоит убивать в 3Д / Sin City: A Dame to Kill For 3D (Роберт Родригес / Robert Rodriguez, Фрэнк Миллер / Frank Miller) [2014, триллер, криминал, BDRip-AVC] Half... TorrentFilm 10.71 GB
Показать сообщения:    

Текущее время: Сегодня 14:52

Часовой пояс: GMT



Вы не можете начинать темы
Вы не можете отвечать на сообщения
Вы не можете редактировать свои сообщения
Вы не можете удалять свои сообщения
Вы не можете голосовать в опросах
Вы не можете прикреплять файлы к сообщениям
Вы не можете скачивать файлы