Фрэнк / Frank (2014) DVD5 [BD -> DVD]

 
Автор Сообщение

sergej644 ®

Пол:

Стаж: 4 года 11 месяцев

Сообщений: 6045

Откуда: Soviet Union



Награды: Нет

Торрент-статистика

Создавать темы 11-Окт-2014 11:47

[Цитировать]

-Фрэнк / Frank (2014) DVD5 [BD -> DVD]- Год выпуска: 2014
Производство: Великобритания, Ирландия
Жанр: Драма, Комедия, Детектив
Режиссер: Леонард Абрахамсон
Продюсер: Дэвид Баррон, Эд Гуене, Стиви Ли
Актеры: Донал Глисон, Мэгги Джилленхол, Скут МакНэйри, Майкл Фассбендер, Мойра Брукер, Пол Баттерворф, Фил Кингстон, Билли Трэйнор, Шэйн О’Брайэн, Франсуа Сивиль
Описание фильма:
В центре истории окажется молодой парень, жаждущий стать музыкантом и попадающий в состав эксцентричной поп-группы, возглавляет которую таинственный и загадочный Фрэнк.
Перевод: Многоголосый закадровый, профессиональный (Лицензия)
Субтитры: отсутствуют

Дата мировой премьеры: 17 января 2014
Дата российской премьеры: 5 июня 2014
Дата выхода DVD релиза: 4 сентября 2014
Продолжительность: 01:31:12
Качество видео: DVD5 [BD -> DVD]
Видеокодек: MPEG-2, 720x576@1024x576 (PAL 16:9), ~5669 Кбит/сек
Аудио 1: AC3, 6 ch, 384 Кбит/с, 48,0 КГц - русский
Аудио 2: AC3, 6 ch, 448 Кбит/с, 48,0 КГц - английский
Сэмпл: Скачать
Релиз группа: Кинцо-Мульцо

Процесс изготовления DVD

Выражаем благодарность mobilnik66 за его BDRemux, из которого я изготовил DVD.
Видео обрабатывалось в Rhozet Carbon Coder за 2 прохода.
Звук обрабатывался в Sony Vegas 9.
DVD собран в DVD-lab PRO 2.
Начальная страница меню озвучена, меню выбора эпизода анимированное.

DVDInfo

Title:
Size: 4.25 Gb ( 4 452 046 KBytes ) - DVD-5
Enabled regions: 1, 2, 3, 4, 5, 6, 7, 8
VTS_01 :
  Play Length: 01:31:12
  Video: PAL 16:9 (720x576) VBR, Auto Pan&Scan
  Audio:
      Russian (Dolby AC3, 6 ch)
      English (Dolby AC3, 6 ch)
  Subtitles:
      Russian
Menu Video:
      PAL 4:3 (720x576) VBR
Menu English Language Unit :
      Root Menu

MediaInfo

Общее
Полное имя                               : E:\!кинчики\фрэнк\Frank.2014.DVD5.PAL.kintso_multso\VIDEO_TS\VTS_01_1.VOB
Формат                                   : MPEG-PS
Размер файла                             : 1000 Мбайт
Продолжительность                        : 19 м.
Режим общего битрейта                    : Переменный
Общий поток                              : 7016 Кбит/сек
Видео
Идентификатор                            : 224 (0xE0)
Формат                                   : MPEG Video
Версия формата                           : Version 2
Профиль формата                          : Main@Main
Параметр BVOP формата                    : Да
Параметр матрицы формата                 : Выборочная
Параметр GOP формата                     : M=3, N=15
Продолжительность                        : 19 м.
Вид битрейта                             : Переменный
Битрейт                                  : 6044 Кбит/сек
Максимальный битрейт                     : 9000 Кбит/сек
Ширина                                   : 720 пикселей
Высота                                   : 576 пикселей
Соотношение сторон                       : 16:9
Частота кадров                           : 25,000 кадров/сек
Стандарт вещания                         : PAL
Цветовое пространство                    : YUV
Субдискретизация насыщенности            : 4:2:0
Битовая глубина                          : 8 бит
Тип развёртки                            : Прогрессивная
Метод сжатия                             : С потерями
Бит/(Пиксели*Кадры)                      : 0.583
Временной код первого кадра              : 00:00:00:00
Оригинал временного кода                 : Group of pictures header
Размер потока                            : 862 Мбайт (86%)
Аудио #1
Идентификатор                            : 189 (0xBD)-128 (0x80)
Формат                                   : AC-3
Формат/Информация                        : Audio Coding 3
Расширение режима                        : CM (complete main)
Параметр Endianness формата              : Big
Режим смешивания                         : DVD-Video
Продолжительность                        : 19 м.
Вид битрейта                             : Постоянный
Битрейт                                  : 384 Кбит/сек
Каналы                                   : 6 каналов
Расположение каналов                     : Front: L C R, Side: L R, LFE
Частота                                  : 48,0 КГц
Битовая глубина                          : 16 бит
Метод сжатия                             : С потерями
Размер потока                            : 54,7 Мбайт (5%)
Аудио #2
Идентификатор                            : 189 (0xBD)-129 (0x81)
Формат                                   : AC-3
Формат/Информация                        : Audio Coding 3
Расширение режима                        : CM (complete main)
Параметр Endianness формата              : Big
Режим смешивания                         : DVD-Video
Продолжительность                        : 19 м.
Вид битрейта                             : Постоянный
Битрейт                                  : 448 Кбит/сек
Каналы                                   : 6 каналов
Расположение каналов                     : Front: L C R, Side: L R, LFE
Частота                                  : 48,0 КГц
Битовая глубина                          : 16 бит
Метод сжатия                             : С потерями
Размер потока                            : 63,9 Мбайт (6%)
Меню

Скриншоты меню

Скриншоты фильма:

Дополнительные скриншоты

Время раздачи: круглосуточно до 20 скачавших
[Профиль] [ЛС]
Кто просматривает тему:

Форум Тема Автор Размер
Документальные HD «Дюна» Ходоровского / Jodorowsky\'s Dune (Фрэнк Павич / Frank Pavich) [2013, Документальный, кинематограф, история, BDRip 720p] rus sub + Original TorrentFilm 4.94 GB
Фильмы (HD Rips | 720p, 1080p) Белый плен / Eight Below (Фрэнк Маршалл / Frank Marshall) [2006, США, драма, мелодрама, приключения, BDRip 1080p] Dub + AVO (Немахов) + Original (Eng) + Sub (Rus, Eng) bot 11.47 GB
Фильмы 2011 года Белый плен / Eight Below (Фрэнк Маршалл / Frank Marshall) [2006, США, драма, мелодрама, приключения, BDRip] Dub + Sub (Rus) painkiller 1.46 GB
Фильмы 2011 года Белый плен / Eight Below (Фрэнк Маршалл / Frank Marshall) [2006, США, мелодрама, драма, приключения, BDRip-AVC] Dub + Original Eng + Sub TorrentFilm 2.18 GB
Бокс, Бои без правил, К1 Бокс. Фёдор Чудинов - Фрэнк Бульони [26.09] (2015) HDTV 1080i Russian Mafia 4.94 GB
Фильмы 2014 года Витце / W. - Witse de film (Фрэнк Ван Мешлен / Frank van Mechelen) [2014, Бельгия, Триллер, детектив, DVDRip] VO (datynet) TorrentFilm 1.46 GB
Зарубежные Гoрод грeхов 2: Женщина, ради которой стоит убивать в 3Д / Sin City: A Dame to Kill For 3D (Фрэнк Миллер, Роберт / Frank Miller, Robert Rodriguez ) [2014, Боевик, триллер, криминал, BDremux, 1080p]... TorrentFilm 31.61 GB
Зарубежные Город грехов 2: Женщина, ради которой стоит убивать в 3Д / Sin City: A Dame to Kill For 3D (Роберт Родригес / Robert Rodriguez, Фрэнк Миллер / Frank Miller) [2014, триллер, криминал, BDRip-AVC] Half... TorrentFilm 10.71 GB
Показать сообщения:    

Текущее время: Сегодня 11:54

Часовой пояс: GMT



Вы не можете начинать темы
Вы не можете отвечать на сообщения
Вы не можете редактировать свои сообщения
Вы не можете удалять свои сообщения
Вы не можете голосовать в опросах
Вы не можете прикреплять файлы к сообщениям
Вы не можете скачивать файлы