Фронтера / Граница / Frontera (Майкл Берри / Michael Berry) [2014, США, драма, WEB-DLRip] VO (datynet)

 
Автор Сообщение

painkiller ®

Стаж: 2 года 3 месяца

Сообщений: 582



Награды: Нет

Торрент-статистика

Создавать темы 16-Авг-2014 14:47

[Цитировать]

Фронтера / Граница / Frontera
Страна: США / Ocean Blue Entertainment, MJW Films
Жанр: драма
Год выпуска: 2014
Продолжительность: 01:42:56
Озвучивание: Одноголосый закадровый [datynet] по переводу Janetta
Примечания: На испанскую речь субтитры не отключаемые
Cубтитры: нет
Оригинальная аудиодорожка: нет
Режиссер: Майкл Берри / Michael Berry
В ролях: Эд Харрис, Майкл Пенья, Ева Лонгория, Эми Мэдиган, Даниэль Сакапа, Кристен Рейкс, Мэттью Пейдж, Сет Эдкинс, Лора Каннингэм ,Алекс Найт
Описание: Убита жена бывшего шерифа Аризоны. Все указывает на причастность к убийству мексиканца, нелегально въехавшего на территорию США. Муж убитой решает объединиться с действующим шерифом, чтобы докопаться до истины…
Сэмпл: http://sendfile.su/1011828
Качество видео: WEB-DLRip
Формат видео: AVI
Видео: 720x304 (2.37:1), 23.976 fps, XviD build 50 ~1518 kbps avg, 0.29 bit/pixel
Аудио: 48 kHz, AC3 Dolby Digital, 3/2 (L,C,R,l,r) + LFE ch, ~384 kbps

MediaInfo

Общее
Полное имя : D:\Рипы\Frontera.2014.WEB-DLRip.L1.1400Mb.avi
Формат : AVI
Формат/Информация : Audio Video Interleave
Размер файла : 1,37 Гбайт
Продолжительность : 1 ч. 42 м.
Общий поток : 1912 Кбит/сек
Программа кодирования : VirtualDubMod 1.5.10.2 (build 2540/release)
Библиотека кодирования : VirtualDubMod build 2540/release
Видео
Идентификатор : 0
Формат : MPEG-4 Visual
Профиль формата : Advanced Simple@L5
Параметр BVOP формата : 2
Параметр QPel формата : Нет
Параметр GMC формата : Без точки перехода
Параметр матрицы формата : Default (H.263)
Идентификатор кодека : XVID
Идентификатор кодека/Подсказка : XviD
Продолжительность : 1 ч. 42 м.
Битрейт : 1518 Кбит/сек
Ширина : 720 пикселей
Высота : 304 пикселя
Соотношение сторон : 2,35:1
Частота кадров : 23,976 кадра/сек
Цветовое пространство : YUV
Субдискретизация насыщенности : 4:2:0
Битовая глубина : 8 бит
Тип развёртки : Прогрессивная
Метод сжатия : С потерями
Бит/(Пиксели*Кадры) : 0.289
Размер потока : 1,09 Гбайт (79%)
Библиотека кодирования : XviD 1.2.1 (UTC 2008-12-04)
Аудио
Идентификатор : 1
Формат : AC-3
Формат/Информация : Audio Coding 3
Расширение режима : CM (complete main)
Параметр Endianness формата : Big
Идентификатор кодека : 2000
Продолжительность : 1 ч. 42 м.
Вид битрейта : Постоянный
Битрейт : 384 Кбит/сек
Каналы : 6 каналов
Расположение каналов : Front: L C R, Side: L R, LFE
Частота : 48,0 КГц
Битовая глубина : 16 бит
Метод сжатия : С потерями
Размер потока : 282 Мбайт (20%)
Выравнивание : Разделение по промежуткам
Продолжительность промежутка : 42 мс. (1,00 видеокадр)
Время предзагрузки промежутка : 500 мс.

Скриншот c названием фильма

Скриншоты

[Профиль] [ЛС]
Кто просматривает тему:

Форум Тема Автор Размер
Action Star Wars: Battlefront 3 Digital Deluxe Edition (2015) [ENG] PC / Звёздные войны Фронт битвы 3 [L] [ENG / ENG] (2015) (1.0) TorrentFilm 27.32 GB
Отечественные мультфильмы Журнал Союзмультфильма № 2 / Чего Гитлер хочет / Бей фашистских пиратов / Бей врага на фронте и в тылу / Крепкое рукопожатие (Зинаида Брумберг, Александр Иванов, Валентина Брумберг, Ольга Ходатаева... TorrentFilm 139 MB
Фильмы 2015 года Западный фронт / Seoboojeonsun (2015) WEBRip 720p | L2 Russian Mafia 2.28 GB
R.G.TorrentFilm Video Западный фронт / Seoboojeonsun (Сон-иль Чхон / Seong-il Cheon) [2015, Корея Южная, Боевик, драма, комедия, военный, WEB-DLRip] DVO (DeadSno & den904) Один 777 749 MB
Фильмы 2011 года Любовь на линии фронта / The Poet (Дамиан Ли / Damian Lee) [2007, Канада, Драма, военный, BDRip] MVO (R5) TorrentFilm 1.47 GB
Фильмы 2011 года Любовь на линии фронта / The Poet (Дэмиан Ли / Damian Lee) [2007, Канада, драма, BDRip] MVO (R5) + Sub (Eng) + Original (Eng) TorrentFilm 2.18 GB
Фантастика и фэнтези Олег Дивов – Закон фронтира (2016) MP3 Swager 1.13 GB
Cборники 70х-80х-90х (Ретро) Сборник - Песни с фронта. Сборник военных песен (2015) MP3 BOSS 721 MB
Показать сообщения:    

Текущее время: Сегодня 16:27

Часовой пояс: GMT



Вы не можете начинать темы
Вы не можете отвечать на сообщения
Вы не можете редактировать свои сообщения
Вы не можете удалять свои сообщения
Вы не можете голосовать в опросах
Вы не можете прикреплять файлы к сообщениям
Вы не можете скачивать файлы