Френни / The Benefactor (2015) WEB-DL 1080p | L

 
Автор Сообщение

BOSS ®

Пол:

Стаж: 2 года 1 месяц

Сообщений: 3735

Откуда: ODESSA



Награды: 20 (Подробнее)

Top Releaser 3 (Количество: 1) Mega Releaser 3 (Количество: 1) Mega Releaser 1 (Количество: 1)
Торрент-статистика

Создавать темы 20-Янв-2016 05:42

[Цитировать]

Информация о фильме
Название: Френни
Оригинальное название: The Benefactor
Год выхода: 2015
Жанр: драма
Режиссер: Эндрю Ренци
В ролях: Лаура Харт, Тео Джеймс, Дакота Фаннинг, Ричард Гир, Кларк Питерс, Мария Брейман, Марко Кака, Эрика Линн Арден, Брайан Энтони Уилсон, Лиза Робертс
О фильме: Главный герой — филантроп, который, чтобы побороть собственное отчаяние, ставит своей целью наладить отношения молодой пары Оливии и Луки, в которые он отчаянно влезает.

Выпущено: США / Audax Films, Big Shoes Media, End Cue, Magnolia Entertainment, Soaring Flight Productions, TideRock Media, Treehouse Pictures
Продолжительность: 01:32:45
Озвучивание: Любительское (многоголосое) [Parovoz Production]
Файл
Формат: MKV
Качество: WEB-DL 1080p
Видео: MPEG-4 AVC, 4375 kb/s, 1912x792
Аудио: Russian: AC3, 192 kb/s (2 ch) / English: AC3, 384 kb/s (6 ch)
Субтитры: English

MI

Format : Matroska
Format version : Version 2
File size : 3.27 GiB
Duration : 1h 32mn
Overall bit rate : 5 052 Kbps
Encoded date : UTC 2016-01-20 00:50:56
Writing application : mkvmerge v7.8.0 ('River Man') 32bit built on Apr 3 2015 12:11:22
Writing library : libebml v1.3.1 + libmatroska v1.4.2
Video
ID : 1
Format : AVC
Format/Info : Advanced Video Codec
Format profile : High@L4
Format settings, CABAC : Yes
Format settings, ReFrames : 5 frames
Codec ID : V_MPEG4/ISO/AVC
Duration : 1h 32mn
Bit rate : 4 375 Kbps
Width : 1 912 pixels
Height : 792 pixels
Display aspect ratio : 2.40:1
Frame rate mode : Constant
Frame rate : 23.976 fps
Color space : YUV
Chroma subsampling : 4:2:0
Bit depth : 8 bits
Scan type : Progressive
Bits/(Pixel*Frame) : 0.121
Stream size : 2.83 GiB (87%)
Language : English
Default : Yes
Forced : No
Color range : Limited
Color primaries : BT.709
Transfer characteristics : BT.709
Matrix coefficients : BT.709
Audio #1
ID : 2
Format : AC-3
Format/Info : Audio Coding 3
Mode extension : CM (complete main)
Format settings, Endianness : Big
Codec ID : A_AC3
Duration : 1h 32mn
Bit rate mode : Constant
Bit rate : 192 Kbps
Channel(s) : 2 channels
Channel positions : Front: L R
Sampling rate : 48.0 KHz
Bit depth : 16 bits
Compression mode : Lossy
Stream size : 127 MiB (4%)
Language : Russian
Default : Yes
Forced : No
Audio #2
ID : 3
Format : AC-3
Format/Info : Audio Coding 3
Mode extension : CM (complete main)
Format settings, Endianness : Big
Codec ID : A_AC3
Duration : 1h 32mn
Bit rate mode : Constant
Bit rate : 384 Kbps
Channel(s) : 6 channels
Channel positions : Front: L C R, Side: L R, LFE
Sampling rate : 48.0 KHz
Bit depth : 16 bits
Compression mode : Lossy
Stream size : 255 MiB (8%)
Language : English
Default : No
Forced : No
Text
ID : 4
Format : UTF-8
Codec ID : S_TEXT/UTF8
Codec ID/Info : UTF-8 Plain Text
Language : English
Default : No
Forced : No
Menu
00:00:00.000 : en:1
00:04:18.000 : en:2
00:14:10.000 : en:3
00:25:40.000 : en:4
00:35:13.000 : en:5
00:44:50.000 : en:6
00:56:38.000 : en:7
01:06:52.000 : en:8
01:17:36.000 : en:9
01:25:01.000 : en:10

Скриншоты



[Профиль] [ЛС]
Показать сообщения:    

Текущее время: Сегодня 08:59

Часовой пояс: GMT



Вы не можете начинать темы
Вы не можете отвечать на сообщения
Вы не можете редактировать свои сообщения
Вы не можете удалять свои сообщения
Вы не можете голосовать в опросах
Вы не можете прикреплять файлы к сообщениям
Вы не можете скачивать файлы