Франц + Полина (2006) DVDRip от New-Team

 
Автор Сообщение

sergej644 ®

Пол:

Стаж: 4 года 11 месяцев

Сообщений: 6038

Откуда: Soviet Union



Награды: Нет

Торрент-статистика

Создавать темы 19-Ноя-2014 11:22

[Цитировать]

-Страна: Россия, Беларусь / Югра-фильм
Жанр: драма, военный
Год выпуска: 2006
Продолжительность: 01:58:26
Перевод: Не требуется
Cубтитры: нет
Оригинальная аудиодорожка: русский
Режиссер: Михаил Сегал
В ролях: Адриан Тополь, Светлана Иванова, Уве Йеллинек, Тамара Миронова, Валентин Мацапура, Андрей Мерзликин, Джульетта Геринг, Игорь Сигов, Виктор Рыбчинский, Алексей Колокольцев...
Описание: По повести "Немой" Алеся Адамовича. 1943 год. В ответ на действия партизан и в рамках "плана по уничтожению славянских народов" по всей Белоруссии сжигаются сотни деревень вместе с жителями. Направленное в одну из таких деревень подразделение СС в последний момент неожиданно получает приказ "приостановить" акцию. Вместо того, чтобы уничтожить жителей, эсесовцы становятся их постояльцами. Успеет ли самый юный из эсесовцев Франц объясниться с Полиной, дочерью своей хозяйки, до того, как поступит новый приказ? Сколько осталось времени?

Качество: DVDRip / DVD9 R5 от ООО «РУССКОЕ СЧАСТЬЕ ЭНТЕРТЕЙНМЕНТ»
Формат: AVI
Видео: 704x384 (1.83:1), 25.000 fps, XviD, ~2187 kbps avg, 0.324 bit/pix
Аудио: 48 kHz, Dolby AC3, 6 ch, 448 kbps, русский
Раздача от:

MediaInfo

General
Format : AVI
Format/Info : Audio Video Interleave
Format profile : OpenDML
File size : 2.19 GiB
Duration : 1h 58mn
Overall bit rate : 2 647 Kbps
Writing application : VirtualDubMod 1.5.10.3 | www.virtualdub-fr.org || (build 2550/release)
Writing library : VirtualDubMod build 2550/release
Video
ID : 0
Format : MPEG-4 Visual
Format profile : Advanced Simple@L5
Format settings, BVOP : 1
Format settings, QPel : No
Format settings, GMC : No warppoints
Format settings, Matrix : Custom
Codec ID : XVID
Codec ID/Hint : XviD
Duration : 1h 58mn
Bit rate : 2 187 Kbps
Width : 704 pixels
Height : 384 pixels
Display aspect ratio : 1.85:1
Frame rate : 25.000 fps
Color space : YUV
Chroma subsampling : 4:2:0
Bit depth : 8 bits
Scan type : Progressive
Compression mode : Lossy
Bits/(Pixel*Frame) : 0.324
Stream size : 1.81 GiB (83%)
Writing library : XviD 1.2.1 (UTC 2008-12-04)
Audio
ID : 1
Format : AC-3
Format/Info : Audio Coding 3
Mode extension : CM (complete main)
Format settings, Endianness : Big
Codec ID : 2000
Duration : 1h 58mn
Bit rate mode : Constant
Bit rate : 448 Kbps
Channel(s) : 6 channels
Channel positions : Front: L C R, Side: L R, LFE
Sampling rate : 48.0 KHz
Bit depth : 16 bits
Compression mode : Lossy
Stream size : 379 MiB (17%)
Alignment : Split accross interleaves
Interleave, duration : 40 ms (1.00 video frame)
Interleave, preload duration : 500 ms

Скриншоты:

[Профиль] [ЛС]

Создавать темы 06-Авг-2015 22:56 (спустя 8 месяцев 17 дней)

Топик был перенесен из форума Фильмы до 2014 года в форум Фильмы до 2012 года
sergej644
 
Кто просматривает тему:

Форум Тема Автор Размер
Pop (Pop) VA - Золотые хиты Французской эстарады - 2015, MP3, 128 kbps Magnat 699 MB
Фильмы 2011 года 13 квадратных метров / 13m2 (Бартелеми Гроссманн / Barthelemy Grossmann) [2007, Франция, криминальная драма, триллер, DVB -> DVD] Original (Fre) + Sub (Rus, Eng, Fre, Deu) TorrentFilm 1.95 GB
Фильмы 2014 года 13-й район: Кирпичные особняки / Brick Mansions (Камиль Деламарр / Camille Delamarre) [2014, Франция, Боевик, криминал, WEB-DLRip] Dub bot 1.46 GB
Фильмы 2014 года 13-й район: Кирпичные особняки / Brick Mansions (Камиль Деламарр / Camille Delamarre) [2014, Франция, Канада, боевик, драма, криминал,WEBRip] Dub bot 703 MB
Фильмы 2014 года 13-й район: Кирпичные особняки / Brick Mansions (Камиль Деламарр / Camille Delamarre) [2014, Франция, Канада, боевик, криминал, BDRip, 720p] Dub (Студия "CineLab SoundMix") sergej644 4.85 GB
Фильмы (HD Rips | 720p, 1080p) 15 дней в другом мире / 15 jours ailleurs (Дидье Бивель / Didier Bivel) [2013, Франция, драма, HDTV 1080i] MVO reversefile 5.84 GB
Фильмы 2014 года 3 дня на убийство / 3 Days to Kill (МакДжи / McG) [2014 г., США, Франция, Греция, Россия, боевик, криминал, триллер, драма, комедия, HDRip-AVC] [Театральная версия / Theatrical Cut] Dub + Original... bot 1.46 GB
Фильмы 2014 года 3 дня на убийство / 3 Days to Kill (МакДжи / McG) [2014 г., США, Франция, Греция, Россия, боевик, криминал, триллер, драма, комедия, HDRip] [Театральная версия / Theatrical Cut] Dub bot 750 MB
Показать сообщения:    

Текущее время: Сегодня 22:11

Часовой пояс: GMT



Вы не можете начинать темы
Вы не можете отвечать на сообщения
Вы не можете редактировать свои сообщения
Вы не можете удалять свои сообщения
Вы не можете голосовать в опросах
Вы не можете прикреплять файлы к сообщениям
Вы не можете скачивать файлы