Француз / Un Français (2015) BDRip 720p | L

 
Автор Сообщение

достали все ®

Пол:

Стаж: 1 год 8 месяцев

Сообщений: 6560



Награды: 12 (Подробнее)

Mega Releaser 2 (Количество: 1) Top Releaser 4 (Количество: 1) Top Releaser 3 (Количество: 1)
Торрент-статистика

Создавать темы 22-Фев-2016 05:32

[Цитировать]

Информация о фильме
Название: Француз
Оригинальное название: Un Français
Год выхода: 2015
Жанр: драма
Режиссер: Дьястем
В ролях: Элбан Ленуар, Samuel Jouy, Поль Ами, Olivier Chenille, Джинн Роза, Патрик Пино, Lucie Debay, Рено Леба, Бландин Пелиссье, Алекс Мартин
О фильме: Марко — настоящий скинхед. Вместе со своими приятелями, Брагетом, Гран-Ги и Марвеном, он дубасит арабов и расклеивает плакаты ультраправых. Это продолжается до тех пор, пока он не начинает чувствовать, что вся эта ненависть улетучилась. Но как избавиться от жестокости, злости и глупости, которая в нас живет? Это пример пути человека, который был подонком, но захотел исправиться.

Выпущено: Франция
Продолжительность: 01:37:11
Озвучивание: Любительское (многоголосное) [Студия "Paradox & Omskbird records"]

Роли озвучивали: Павел Ярощик, Константин Погодаев, Андрей Астров, Ольга Федорова
Перевод: Екатерина Кузнецова
Файл
Формат: MKV
Качество: BDRip 720p
Видео: MPEG-4 AVC, 4935 kb/s, 1280x536
Аудио: Russian: AC3, 448 kb/s (6 ch) / French: DTS, 1509 kb/s (6 ch)

MI

Format : Matroska
Format version : Version 2
File size : 4.68 GiB
Duration : 1h 37mn
Overall bit rate : 6 893 Kbps
Encoded date : UTC 2016-02-21 21:38:26
Writing application : mkvmerge v7.8.0 ('River Man') 32bit built on Apr 3 2015 12:11:22
Writing library : libebml v1.3.1 + libmatroska v1.4.2
Video
ID : 1
Format : AVC
Format/Info : Advanced Video Codec
Format profile : High@L4.1
Format settings, CABAC : Yes
Format settings, ReFrames : 5 frames
Codec ID : V_MPEG4/ISO/AVC
Duration : 1h 37mn
Bit rate : 4 935 Kbps
Width : 1 280 pixels
Height : 536 pixels
Display aspect ratio : 2.40:1
Frame rate mode : Constant
Frame rate : 24.000 fps
Color space : YUV
Chroma subsampling : 4:2:0
Bit depth : 8 bits
Scan type : Progressive
Bits/(Pixel*Frame) : 0.300
Stream size : 3.26 GiB (70%)
Writing library : x264 core 148 r2638 7599210
Encoding settings : cabac=1 / ref=5 / deblock=1:0:0 / analyse=0x3:0x113 / me=umh / subme=8 / psy=1 / psy_rd=1.00:0.00 / mixed_ref=1 / me_range=16 / chroma_me=1 / trellis=1 / 8x8dct=1 / cqm=0 / deadzone=21,11 / fast_pskip=1 / chroma_qp_offset=-2 / threads=17 / lookahead_threads=2 / sliced_threads=0 / nr=0 / decimate=1 / interlaced=0 / bluray_compat=0 / constrained_intra=0 / bframes=3 / b_pyramid=2 / b_adapt=2 / b_bias=0 / direct=3 / weightb=1 / open_gop=0 / weightp=2 / keyint=240 / keyint_min=24 / scenecut=40 / intra_refresh=0 / rc_lookahead=50 / rc=2pass / mbtree=1 / bitrate=4935 / ratetol=1.0 / qcomp=0.60 / qpmin=0 / qpmax=69 / qpstep=4 / cplxblur=20.0 / qblur=0.5 / ip_ratio=1.40 / aq=1:1.00
Language : French
Default : Yes
Forced : No
Audio #1
ID : 2
Format : AC-3
Format/Info : Audio Coding 3
Mode extension : CM (complete main)
Format settings, Endianness : Big
Codec ID : A_AC3
Duration : 1h 37mn
Bit rate mode : Constant
Bit rate : 448 Kbps
Channel(s) : 6 channels
Channel positions : Front: L C R, Side: L R, LFE
Sampling rate : 48.0 KHz
Bit depth : 16 bits
Compression mode : Lossy
Stream size : 311 MiB (6%)
Language : Russian
Default : Yes
Forced : No
Audio #2
ID : 3
Format : DTS
Format/Info : Digital Theater Systems
Format profile : ES
Mode : 16
Format settings, Endianness : Big
Codec ID : A_DTS
Duration : 1h 37mn
Bit rate mode : Constant
Bit rate : 1 509 Kbps
Channel(s) : 6 channels
Channel positions : Front: L C R, Side: L R, LFE
Sampling rate : 48.0 KHz
Bit depth : 24 bits
Compression mode : Lossy
Stream size : 1.02 GiB (22%)
Language : French
Default : No
Forced : No
Menu
00:00:00.000 : en:00:00:00.000
00:10:00.000 : en:00:10:00.000
00:20:00.000 : en:00:20:00.000
00:30:00.000 : en:00:30:00.000
00:40:00.000 : en:00:40:00.000
00:50:00.000 : en:00:50:00.000
01:00:00.000 : en:01:00:00.000
01:10:00.000 : en:01:10:00.000
01:20:00.000 : en:01:20:00.000
01:30:00.000 : en:01:30:00.000

Скриншоты



[Профиль] [ЛС]
Кто просматривает тему:

Форум Тема Автор Размер
Pop (Pop) VA - Золотые хиты Французской эстарады - 2015, MP3, 128 kbps Magnat 699 MB
Фильмы 2011 года 13 квадратных метров / 13m2 (Бартелеми Гроссманн / Barthelemy Grossmann) [2007, Франция, криминальная драма, триллер, DVB -> DVD] Original (Fre) + Sub (Rus, Eng, Fre, Deu) TorrentFilm 1.95 GB
Фильмы 2014 года 13-й район: Кирпичные особняки / Brick Mansions (Камиль Деламарр / Camille Delamarre) [2014, Франция, Боевик, криминал, WEB-DLRip] Dub bot 1.46 GB
Фильмы 2014 года 13-й район: Кирпичные особняки / Brick Mansions (Камиль Деламарр / Camille Delamarre) [2014, Франция, Канада, боевик, драма, криминал,WEBRip] Dub bot 703 MB
Фильмы 2014 года 13-й район: Кирпичные особняки / Brick Mansions (Камиль Деламарр / Camille Delamarre) [2014, Франция, Канада, боевик, криминал, BDRip, 720p] Dub (Студия "CineLab SoundMix") sergej644 4.85 GB
Фильмы (HD Rips | 720p, 1080p) 15 дней в другом мире / 15 jours ailleurs (Дидье Бивель / Didier Bivel) [2013, Франция, драма, HDTV 1080i] MVO reversefile 5.84 GB
Фильмы 2014 года 3 дня на убийство / 3 Days to Kill (МакДжи / McG) [2014 г., США, Франция, Греция, Россия, боевик, криминал, триллер, драма, комедия, HDRip-AVC] [Театральная версия / Theatrical Cut] Dub + Original... bot 1.46 GB
Фильмы 2014 года 3 дня на убийство / 3 Days to Kill (МакДжи / McG) [2014 г., США, Франция, Греция, Россия, боевик, криминал, триллер, драма, комедия, HDRip] [Театральная версия / Theatrical Cut] Dub bot 750 MB
Показать сообщения:    

Текущее время: Сегодня 06:07

Часовой пояс: GMT



Вы не можете начинать темы
Вы не можете отвечать на сообщения
Вы не можете редактировать свои сообщения
Вы не можете удалять свои сообщения
Вы не можете голосовать в опросах
Вы не можете прикреплять файлы к сообщениям
Вы не можете скачивать файлы