Французский шпион (Алексей Феоктистов) [2014, боевик, детектив, DVDRip] | Лицензия

 
Автор Сообщение

sergej644 ®

Пол:

Стаж: 4 года 11 месяцев

Сообщений: 6046

Откуда: Soviet Union



Награды: Нет

Торрент-статистика

Создавать темы 25-Июл-2014 19:50

[Цитировать]

-Французский шпион
Информация о фильме
Название: Французский шпион
Оригинальное название: Французский шпион
Выпущено: Россия
Год выхода: 2014
Жанр: боевик, детектив
Продолжительность: 01:34:23
Озвучивание: Оригинал [лицензия]
Режиссер: Алексей Феоктистов
В ролях: Оскар Кучера, Анна Чурина, Дмитрий Супонин, Евгений Редько, Сергей Стёпин, Фаридуншо Рахматуллоев, Валерий Новиков, Рустам Абдрашитов, Бесо Гатаев, Данила Якушев
О фильме: 1990 год. Вывод советских войск из Чехословакии. Часть, в которой служил лейтенант Андрей Канаев, расформирована. В результате устроенной приятелем Андрея авантюры он оказывается во Франции, где поступает в "Иностранный легион". Здесь молодой лейтенант будет втянут в шпионскую деятельность против России и ему предстоит сделать серьезный нравственный выбор, умело лавируя между западными и российскими спецслужбами.

Файл
Качество: DVDRip
Формат: AVI (XviD)
Видео кодек: mpeg4
Аудио кодек: AC-3
Видео: 1842 Кбит/с, 720x400(16:9), MPEG-4, (XviD)
Аудио: AC3, 224 Кбит/с , 48,0 kHz, 16 bit, (2 ch)
-

MediaInfo

Общее
Полное имя                               : E:\torrent files\Francuzkiy.Shpion.2014.O.DVDRip.1400MB.avi
Формат                                   : AVI
Формат/Информация                        : Audio Video Interleave
Размер файла                             : 1,37 Гбайт
Продолжительность                        : 1 ч. 34 м.
Общий поток                              : 2076 Кбит/сек
Программа кодирования                    : VirtualDubMod 1.5.10.3 | www.virtualdub-fr.org || (build 2550/release)
Библиотека кодирования                   : VirtualDubMod build 2550/release
Видео
Идентификатор                            : 0
Формат                                   : MPEG-4 Visual
Профиль формата                          : Advanced Simple@L5
Параметр BVOP формата                    : 2
Параметр QPel формата                    : Нет
Параметр GMC формата                     : Без точки перехода
Параметр матрицы формата                 : Default (MPEG)
Идентификатор кодека                     : XVID
Идентификатор кодека/Подсказка           : XviD
Продолжительность                        : 1 ч. 34 м.
Битрейт                                  : 1842 Кбит/сек
Ширина                                   : 720 пикселей
Высота                                   : 400 пикселей
Соотношение сторон                       : 16:9
Частота кадров                           : 25,000 кадров/сек
Цветовое пространство                    : YUV
Субдискретизация насыщенности            : 4:2:0
Битовая глубина                          : 8 бит
Тип развёртки                            : Прогрессивная
Метод сжатия                             : С потерями
Бит/(Пиксели*Кадры)                      : 0.256
Размер потока                            : 1,21 Гбайт (89%)
Библиотека кодирования                   : XviD 1.2.1 (UTC 2008-12-04)
Аудио
Идентификатор                            : 1
Формат                                   : AC-3
Формат/Информация                        : Audio Coding 3
Расширение режима                        : CM (complete main)
Параметр Endianness формата              : Big
Идентификатор кодека                     : 2000
Продолжительность                        : 1 ч. 34 м.
Вид битрейта                             : Постоянный
Битрейт                                  : 224 Кбит/сек
Каналы                                   : 2 канала
Расположение каналов                     : Front: L R
Частота                                  : 48,0 КГц
Битовая глубина                          : 16 бит
Метод сжатия                             : С потерями
Размер потока                            : 151 Мбайт (11%)
Выравнивание                             : Разделение по промежуткам
Продолжительность промежутка             : 40  мс. (1,00 видеокадр)
Время предзагрузки промежутка            : 500  мс.
-

Скриншоты

--
[Профиль] [ЛС]
Кто просматривает тему:

Форум Тема Автор Размер
Pop (Pop) VA - Золотые хиты Французской эстарады - 2015, MP3, 128 kbps Magnat 699 MB
Фильмы 2011 года 13 квадратных метров / 13m2 (Бартелеми Гроссманн / Barthelemy Grossmann) [2007, Франция, криминальная драма, триллер, DVB -> DVD] Original (Fre) + Sub (Rus, Eng, Fre, Deu) TorrentFilm 1.95 GB
Фильмы 2014 года 13-й район: Кирпичные особняки / Brick Mansions (Камиль Деламарр / Camille Delamarre) [2014, Франция, Боевик, криминал, WEB-DLRip] Dub bot 1.46 GB
Фильмы 2014 года 13-й район: Кирпичные особняки / Brick Mansions (Камиль Деламарр / Camille Delamarre) [2014, Франция, Канада, боевик, драма, криминал,WEBRip] Dub bot 703 MB
Фильмы 2014 года 13-й район: Кирпичные особняки / Brick Mansions (Камиль Деламарр / Camille Delamarre) [2014, Франция, Канада, боевик, криминал, BDRip, 720p] Dub (Студия "CineLab SoundMix") sergej644 4.85 GB
Фильмы (HD Rips | 720p, 1080p) 15 дней в другом мире / 15 jours ailleurs (Дидье Бивель / Didier Bivel) [2013, Франция, драма, HDTV 1080i] MVO reversefile 5.84 GB
Фильмы 2014 года 3 дня на убийство / 3 Days to Kill (МакДжи / McG) [2014 г., США, Франция, Греция, Россия, боевик, криминал, триллер, драма, комедия, HDRip-AVC] [Театральная версия / Theatrical Cut] Dub + Original... bot 1.46 GB
Фильмы 2014 года 3 дня на убийство / 3 Days to Kill (МакДжи / McG) [2014 г., США, Франция, Греция, Россия, боевик, криминал, триллер, драма, комедия, HDRip] [Театральная версия / Theatrical Cut] Dub bot 750 MB
Показать сообщения:    

Текущее время: Сегодня 22:42

Часовой пояс: GMT



Вы не можете начинать темы
Вы не можете отвечать на сообщения
Вы не можете редактировать свои сообщения
Вы не можете удалять свои сообщения
Вы не можете голосовать в опросах
Вы не можете прикреплять файлы к сообщениям
Вы не можете скачивать файлы