Французский поцелуй / French Kiss (1995) BDRip 720p | P, P2, A

 
Автор Сообщение

sergej644 ®

Пол:

Стаж: 4 года 11 месяцев

Сообщений: 6046

Откуда: Soviet Union



Награды: Нет

Торрент-статистика

Создавать темы 11-Фев-2015 12:40

[Цитировать]

Французский поцелуй / French Kiss (1995) BDRip 720p | P, P2, A
«Kates' stuck in a place where anything can happen with a guy who'll make sure that it does»
- Год выпуска: 1995
Производство: Великобритания, США / 20th Century Fox Film Corporation, PolyGram Filmed Entertainment, Prufrock Pictures, Working Title Films
Жанр: драма, мелодрамма, комедия
Режиссер: Лоуренс Кэсдан
Сценарий: Адам Брукс
Продюсер: Тим Беван, Эрик Феллнер, Кэтрин Ф. Галан
Актеры: Мег Райан, Кевин Клайн, Тимоти Хаттон, Жан Рено, Франсуа Клюзе, Рени Хамфри, Майкл Райли, Элизабет Коммелин, Сьюзан Анбех, Лорен Шпильфогель, Виктор Гарривье, Микель Браун, Луиз Дешам, Клаудио Тодесчини, Джерри Харт, Джоэнна Павлис, Барбара Шульц, Клеман Сибони, Адам Брукс, Филипп Гарнье, Жан Корсо, Майк Джонс, Мари-Кристин Адам, Фаусто Костантино, Доминик Ренье, Инге Офферман, Николас Хоутри, Вольфганг Писсорс, Никола Оберманн, Дороти Пикард, Жан Эллейн
Описание:
Когда ее жених Чарли влюбляется в другую, Кейт отправляется на его поиски. В самолете она знакомится с загадочным, очаровательным французом Люком, который оказывается контрабандистом, подложившим ей в сумочку дорогое ожерелье, чтобы пройти таможню. Но Кейт потеряла все - паспорт, деньги, контрабандное ожерелье и теперь они вынуждены поневоле продолжить знакомство. И Люк, взявшись помочь Кейт вернуть жениха, обучает ее чисто французскому искусству обольщения. Очень хорошо усвоив уроки, Кейт возвращает себе Чарли. Но проблема в том, что он ей уже больше не нужен. Ей нужен Люк...
Перевод: Профессиональный (многоголосый закадровый) [ОРТ], Профессиональный (двухголосый закадровый) [Екатеринбург-Арт], Авторский (одноголосый закадровый) [Ю.Живов], Авторский (одноголосый закадровый) [П.Карцев]
Вид субтитров: Вшитые отключаемые
Язык субтитров: Английский

Дата мировой премьеры: 5 мая 1995
Рейтинг MPAA: PG-13
Возраст: 16+
Продолжительность: 01:51:13
Качество: BDRip [720p]
Видео: MPEG-4 AVC/H.264, 1280x544 (2.35:1), ~8 200 kbps, 23.976 fps
Аудио 1: Русский - AC3 / 2.0 / 192 Kbps / 48.0 KHz - Профессиональный (многоголосый закадровый) [ОРТ]
Аудио 2: Русский - AC3 / 2.0 / 192 Kbps / 48.0 KHz - Профессиональный (двухголосый закадровый) [Екатеринбург-Арт]
Аудио 3: Русский - AC3 / 5.1 / 384 Kbps / 48.0 KHz - Авторский (одноголосый закадровый) [Ю.Живов]
Аудио 4: Русский - AC3 / 2.0 / 192 Kbps / 48.0 KHz - Авторский (одноголосый закадровый) [П.Карцев]
Аудио 5: Английский - AC3 / 5.1 / 640 Kbps / 48.0 KHz - Оригинальный-

MediaInfo

General
Unique ID : 210647635053748357183102486020710544623 (0x9E794241237E30D98E77123B7C8134EF)
Complete name : I:modoutFrench.Kiss.1995.BDRip.720p.PP2A.mkv
Format : Matroska
Format version : Version 4 / Version 2
File size : 7.77 GiB
Duration : 1h 51mn
Overall bit rate : 9 999 Kbps
Movie name : French Kiss (1995)
Encoded date : UTC 2014-10-31 14:33:59
Writing application : mkvmerge v7.3.0 ('Nouages') 64bit built on Oct 22 2014 18:53:34
Writing library : libebml v1.3.0 + libmatroska v1.4.1
Attachements : info.txt / cover.jpg
DURATION : 01:50:26.078000000
NUMBER_OF_FRAMES : 2112
NUMBER_OF_BYTES : 52159
_STATISTICS_WRITING_APP : mkvmerge v7.3.0 ('Nouages') 64bit built on Oct 22 2014 18:53:34
_STATISTICS_WRITING_DATE_UTC : 2014-10-31 14:33:59
_STATISTICS_TAGS : BPS DURATION NUMBER_OF_FRAMES NUMBER_OF_BYTES
Video
ID : 1
Format : AVC
Format/Info : Advanced Video Codec
Format profile : High@L4.1
Format settings, CABAC : Yes
Format settings, ReFrames : 10 frames
Codec ID : V_MPEG4/ISO/AVC
Duration : 1h 51mn
Bit rate : 8 200 Kbps
Width : 1 280 pixels
Height : 544 pixels
Display aspect ratio : 2.35:1
Frame rate mode : Constant
Frame rate : 23.976 fps
Color space : YUV
Chroma subsampling : 4:2:0
Bit depth : 8 bits
Scan type : Progressive
Bits/(Pixel*Frame) : 0.491
Stream size : 6.37 GiB (82%)
Title : French Kiss (1995)
Language : English
Default : Yes
Forced : No
Color primaries : BT.709
Transfer characteristics : BT.709
Matrix coefficients : BT.709
DURATION : 01:51:12.958000000
NUMBER_OF_FRAMES : 159991
NUMBER_OF_BYTES : 7004455734
_STATISTICS_WRITING_APP : mkvmerge v7.3.0 ('Nouages') 64bit built on Oct 22 2014 18:53:34
_STATISTICS_WRITING_DATE_UTC : 2014-10-31 14:33:59
_STATISTICS_TAGS : BPS DURATION NUMBER_OF_FRAMES NUMBER_OF_BYTES
Audio #1
ID : 2
Format : AC-3
Format/Info : Audio Coding 3
Mode extension : CM (complete main)
Format settings, Endianness : Big
Codec ID : A_AC3
Duration : 1h 51mn
Bit rate mode : Constant
Bit rate : 192 Kbps
Channel(s) : 2 channels
Channel positions : Front: L R
Sampling rate : 48.0 KHz
Bit depth : 16 bits
Compression mode : Lossy
Stream size : 153 MiB (2%)
Title : MVO [OPT]
Language : Russian
Default : Yes
Forced : No
Audio #2
ID : 3
Format : AC-3
Format/Info : Audio Coding 3
Mode extension : CM (complete main)
Format settings, Endianness : Big
Codec ID : A_AC3
Duration : 1h 51mn
Bit rate mode : Constant
Bit rate : 192 Kbps
Channel(s) : 2 channels
Channel positions : Front: L R
Sampling rate : 48.0 KHz
Bit depth : 16 bits
Compression mode : Lossy
Stream size : 153 MiB (2%)
Title : DVO [Ek-Art]
Language : Russian
Default : No
Forced : No
Audio #3
ID : 4
Format : AC-3
Format/Info : Audio Coding 3
Mode extension : CM (complete main)
Format settings, Endianness : Big
Codec ID : A_AC3
Duration : 1h 51mn
Bit rate mode : Constant
Bit rate : 384 Kbps
Channel(s) : 6 channels
Channel positions : Front: L C R, Side: L R, LFE
Sampling rate : 48.0 KHz
Bit depth : 16 bits
Compression mode : Lossy
Stream size : 305 MiB (4%)
Title : AVO [Y.Jivov]
Language : Russian
Default : No
Forced : No
Audio #4
ID : 5
Format : AC-3
Format/Info : Audio Coding 3
Mode extension : CM (complete main)
Format settings, Endianness : Big
Codec ID : A_AC3
Duration : 1h 51mn
Bit rate mode : Constant
Bit rate : 192 Kbps
Channel(s) : 2 channels
Channel positions : Front: L R
Sampling rate : 48.0 KHz
Bit depth : 16 bits
Compression mode : Lossy
Stream size : 153 MiB (2%)
Title : AVO [P.Kartzev]
Language : Russian
Default : No
Forced : No
Audio #5
ID : 6
Format : AC-3
Format/Info : Audio Coding 3
Mode extension : CM (complete main)
Format settings, Endianness : Big
Codec ID : A_AC3
Duration : 1h 51mn
Bit rate mode : Constant
Bit rate : 640 Kbps
Channel(s) : 6 channels
Channel positions : Front: L C R, Side: L R, LFE
Sampling rate : 48.0 KHz
Bit depth : 16 bits
Compression mode : Lossy
Stream size : 509 MiB (6%)
Title : original
Language : English
Default : No
Forced : No
Text
ID : 7
Format : UTF-8
Codec ID : S_TEXT/UTF8
Codec ID/Info : UTF-8 Plain Text
Language : English
Default : Yes
Forced : No
Menu
00:00:00.000 : en:00:00:00.000
00:07:55.641 : en:00:07:55.641
00:10:00.266 : en:00:10:00.266
00:15:53.410 : en:00:15:53.410
00:21:43.844 : en:00:21:43.844
00:24:15.704 : en:00:24:15.704
00:30:33.164 : en:00:30:33.164
00:35:13.152 : en:00:35:13.152
00:39:37.500 : en:00:39:37.500
00:44:16.570 : en:00:44:16.570
00:50:25.147 : en:00:50:25.147
00:56:33.431 : en:00:56:33.431
01:01:14.170 : en:01:01:14.170
01:06:08.297 : en:01:06:08.297
01:13:22.106 : en:01:13:22.106
01:17:17.257 : en:01:17:17.257
01:21:08.280 : en:01:21:08.280
01:27:26.824 : en:01:27:26.824
01:34:28.162 : en:01:34:28.162
01:38:29.278 : en:01:38:29.278
01:42:53.584 : en:01:42:53.584
01:44:41.942 : en:01:44:41.942

x264 лог

x264 [info]: frame I:1039 Avg QP:15.00 size:149554
x264 [info]: frame P:32595 Avg QP:18.27 size: 60059
x264 [info]: frame B:126357 Avg QP:20.16 size: 23723
x264 [info]: consecutive B-frames: 1.2% 1.6% 4.8% 20.3% 19.3% 44.3% 4.8% 1.7% 0.6% 0.4% 0.2% 0.2% 0.1% 0.1% 0.4%
x264 [info]: mb I I16..4: 13.4% 67.3% 19.2%
x264 [info]: mb P I16..4: 0.9% 18.5% 2.2% P16..4: 23.4% 30.7% 16.9% 4.0% 0.5% skip: 2.8%
x264 [info]: mb B I16..4: 0.1% 3.0% 0.2% B16..8: 29.5% 21.4% 4.2% direct:15.4% skip:26.2% L0:38.0% L1:34.3% BI:27.7%
x264 [info]: 8x8 transform intra:86.1% inter:44.4%
x264 [info]: direct mvs spatial:100.0% temporal:0.0%
x264 [info]: coded y,uvDC,uvAC intra: 98.7% 94.6% 81.1% inter: 45.9% 39.0% 17.1%
x264 [info]: i16 v,h,dc,p: 9% 9% 22% 60%
x264 [info]: i8 v,h,dc,ddl,ddr,vr,hd,vl,hu: 13% 10% 11% 8% 12% 11% 11% 11% 13%
x264 [info]: i4 v,h,dc,ddl,ddr,vr,hd,vl,hu: 10% 10% 5% 9% 15% 14% 14% 11% 13%
x264 [info]: i8c dc,h,v,p: 46% 18% 18% 18%
x264 [info]: Weighted P-Frames: Y:5.4% UV:2.8%
x264 [info]: ref P L0: 34.8% 10.2% 22.6% 7.2% 8.0% 4.4% 5.3% 2.3% 3.0% 2.1% 0.2% 0.0%
x264 [info]: ref B L0: 74.7% 12.4% 4.6% 2.8% 1.7% 1.7% 1.2% 0.6% 0.3%
x264 [info]: ref B L1: 94.9% 5.1%
x264 [info]: kb/s:8 231.89
[Профиль] [ЛС]
Кто просматривает тему:

Форум Тема Автор Размер
Pop (Pop) VA - Золотые хиты Французской эстарады - 2015, MP3, 128 kbps Magnat 699 MB
Фильмы 2011 года 13 квадратных метров / 13m2 (Бартелеми Гроссманн / Barthelemy Grossmann) [2007, Франция, криминальная драма, триллер, DVB -> DVD] Original (Fre) + Sub (Rus, Eng, Fre, Deu) TorrentFilm 1.95 GB
Фильмы 2014 года 13-й район: Кирпичные особняки / Brick Mansions (Камиль Деламарр / Camille Delamarre) [2014, Франция, Боевик, криминал, WEB-DLRip] Dub bot 1.46 GB
Фильмы 2014 года 13-й район: Кирпичные особняки / Brick Mansions (Камиль Деламарр / Camille Delamarre) [2014, Франция, Канада, боевик, драма, криминал,WEBRip] Dub bot 703 MB
Фильмы 2014 года 13-й район: Кирпичные особняки / Brick Mansions (Камиль Деламарр / Camille Delamarre) [2014, Франция, Канада, боевик, криминал, BDRip, 720p] Dub (Студия "CineLab SoundMix") sergej644 4.85 GB
Фильмы (HD Rips | 720p, 1080p) 15 дней в другом мире / 15 jours ailleurs (Дидье Бивель / Didier Bivel) [2013, Франция, драма, HDTV 1080i] MVO reversefile 5.84 GB
Фильмы 2014 года 3 дня на убийство / 3 Days to Kill (МакДжи / McG) [2014 г., США, Франция, Греция, Россия, боевик, криминал, триллер, драма, комедия, HDRip-AVC] [Театральная версия / Theatrical Cut] Dub + Original... bot 1.46 GB
Фильмы 2014 года 3 дня на убийство / 3 Days to Kill (МакДжи / McG) [2014 г., США, Франция, Греция, Россия, боевик, криминал, триллер, драма, комедия, HDRip] [Театральная версия / Theatrical Cut] Dub bot 750 MB
Показать сообщения:    

Текущее время: Сегодня 13:46

Часовой пояс: GMT



Вы не можете начинать темы
Вы не можете отвечать на сообщения
Вы не можете редактировать свои сообщения
Вы не можете удалять свои сообщения
Вы не можете голосовать в опросах
Вы не можете прикреплять файлы к сообщениям
Вы не можете скачивать файлы