Франция, 1788 1/2 / 1788... et demi (Оливье Гиньяр / Olivier Guignard) [2010, Бельгия, Франция, драма, DVB] MVO (СВ Дубль)

 
Автор Сообщение

painkiller ®

Стаж: 2 года 3 месяца

Сообщений: 582



Награды: Нет

Торрент-статистика

Создавать темы 16-Авг-2014 14:46

[Цитировать]

Франция, 1788 1/2 / 1788... et demi (6 серий)
28.02 торрент обновлен, по просьбам трудящихся запись трансляции со спутника EUTELSAT заменена на запись трансляции со спутника Ямал 202. Отличия - битрейт 5700 против 2700, звук 256 против 192
Страна: Бельгия, Франция
Жанр: драма
Год выпуска: 2010
Продолжительность: 00:43:57 + 00:49:34 + 00:55:54 + 00:55:50 + 00:54:55 + 00:55:32
Перевод: Профессиональный (многоголосый закадровый) СВ Дубль
Cубтитры: нет
Оригинальная аудиодорожка: нет
Режиссер: Оливье Гиньяр / Olivier Guignard
В ролях: Сэм Карманн, Жюли Вуазен, Лу де Лааж, Камий Кларис, Юбер Кунде, Брюно Дебрандт, Франсуа Лорике, Маэва Паскуали, Матье Симоне, Серж Рябукин,
Описание: 1788 год. До Великой французской революции - несколько месяцев. Граф Франсуа де Сент-Азюр, изобретатель и военный, живет беспечно в своем поместье с дочерьми - Виктуар, Полиной и Шарлоттой. Граф создает и испытывает пушки, которые должны разгромить английский флот. Дочери находят развлечения, каждая в своем: Виктуар - в науке и оккультизме, Шарлотта - в овладении оружием, Полина в чувственных наслаждениях.
Доп. информация: Запись потока *.ts со спутника Ямал 202 сделана и любезно предоставлена для этой раздачи коллегой ItarTass.
Сэмпл: http://multi-up.com/955201
Качество видео: DVB
Формат видео: MPEG-PS
Видео: MPEG Video, 720(768)x576 (4:3), 25,000 кадров/сек, 5 323 Кбит/сек
Аудио: MPEG Audio, 48,0 КГц, 256 Кбит/сек, 2 канала

MediaInfo

General
Complete name : D:\MPG\Франция 1788\ФРАНЦИЯ 1788 1 (Россия К).mpg
Format : MPEG-PS
File size : 1.76 GiB
Duration : 44mn 12s
Overall bit rate mode : Variable
Overall bit rate : 5 692 Kbps
Video
ID : 224 (0xE0)
Format : MPEG Video
Format version : Version 2
Format profile : Main@Main
Format settings, BVOP : Yes
Format settings, Matrix : Custom
Format settings, GOP : M=3, N=15
Duration : 44mn 12s
Bit rate mode : Variable
Bit rate : 5 323 Kbps
Maximum bit rate : 15.0 Mbps
Width : 720 pixels
Height : 576 pixels
Display aspect ratio : 4:3
Frame rate : 25.000 fps
Standard : PAL
Color space : YUV
Chroma subsampling : 4:2:0
Bit depth : 8 bits
Scan type : Interlaced
Scan order : Top Field First
Compression mode : Lossy
Bits/(Pixel*Frame) : 0.513
Time code of first frame : 00:00:00:00
Time code source : Group of pictures header
Stream size : 1.64 GiB (94%)
Audio
ID : 192 (0xC0)
Format : MPEG Audio
Format version : Version 1
Format profile : Layer 2
Duration : 44mn 12s
Bit rate mode : Constant
Bit rate : 256 Kbps
Channel count : 2 channels
Sampling rate : 48.0 KHz
Compression mode : Lossy
Delay relative to video : 21ms
Stream size : 80.9 MiB (4%)
General
Complete name : D:\MPG\Франция 1788\ФРАНЦИЯ 1788 2 (Россия К).mpg
Format : MPEG-PS
File size : 1.96 GiB
Duration : 49mn 19s
Overall bit rate mode : Variable
Overall bit rate : 5 693 Kbps
Video
ID : 224 (0xE0)
Format : MPEG Video
Format version : Version 2
Format profile : Main@Main
Format settings, BVOP : Yes
Format settings, Matrix : Custom
Format settings, GOP : M=3, N=15
Duration : 49mn 19s
Bit rate mode : Variable
Bit rate : 5 323 Kbps
Maximum bit rate : 15.0 Mbps
Width : 720 pixels
Height : 576 pixels
Display aspect ratio : 4:3
Frame rate : 25.000 fps
Standard : PAL
Color space : YUV
Chroma subsampling : 4:2:0
Bit depth : 8 bits
Scan type : Interlaced
Scan order : Top Field First
Compression mode : Lossy
Bits/(Pixel*Frame) : 0.513
Time code of first frame : 00:00:00:00
Time code source : Group of pictures header
Stream size : 1.83 GiB (94%)
Audio
ID : 192 (0xC0)
Format : MPEG Audio
Format version : Version 1
Format profile : Layer 2
Duration : 49mn 18s
Bit rate mode : Constant
Bit rate : 256 Kbps
Channel count : 2 channels
Sampling rate : 48.0 KHz
Compression mode : Lossy
Delay relative to video : 13ms
Stream size : 90.3 MiB (4%)
General
Complete name : D:\MPG\Франция 1788\ФРАНЦИЯ 1788 3 (Россия К).mpg
Format : MPEG-PS
File size : 2.22 GiB
Duration : 55mn 54s
Overall bit rate mode : Variable
Overall bit rate : 5 692 Kbps
Video
ID : 224 (0xE0)
Format : MPEG Video
Format version : Version 2
Format profile : Main@Main
Format settings, BVOP : Yes
Format settings, Matrix : Custom
Format settings, GOP : M=3, N=15
Duration : 55mn 54s
Bit rate mode : Variable
Bit rate : 5 323 Kbps
Maximum bit rate : 15.0 Mbps
Width : 720 pixels
Height : 576 pixels
Display aspect ratio : 4:3
Frame rate : 25.000 fps
Standard : PAL
Color space : YUV
Chroma subsampling : 4:2:0
Bit depth : 8 bits
Scan type : Interlaced
Scan order : Top Field First
Compression mode : Lossy
Bits/(Pixel*Frame) : 0.513
Time code of first frame : 00:00:00:00
Time code source : Group of pictures header
Stream size : 2.08 GiB (94%)
Audio
ID : 192 (0xC0)
Format : MPEG Audio
Format version : Version 1
Format profile : Layer 2
Duration : 55mn 54s
Bit rate mode : Constant
Bit rate : 256 Kbps
Channel count : 2 channels
Sampling rate : 48.0 KHz
Compression mode : Lossy
Delay relative to video : 21ms
Stream size : 102 MiB (4%)
General
Complete name : D:\MPG\Франция 1788\ФРАНЦИЯ 1788 4 (Россия К).mpg
Format : MPEG-PS
File size : 2.22 GiB
Duration : 55mn 50s
Overall bit rate mode : Variable
Overall bit rate : 5 692 Kbps
Video
ID : 224 (0xE0)
Format : MPEG Video
Format version : Version 2
Format profile : Main@Main
Format settings, BVOP : Yes
Format settings, Matrix : Custom
Format settings, GOP : M=3, N=15
Duration : 55mn 50s
Bit rate mode : Variable
Bit rate : 5 323 Kbps
Maximum bit rate : 15.0 Mbps
Width : 720 pixels
Height : 576 pixels
Display aspect ratio : 4:3
Frame rate : 25.000 fps
Standard : PAL
Color space : YUV
Chroma subsampling : 4:2:0
Bit depth : 8 bits
Scan type : Interlaced
Scan order : Top Field First
Compression mode : Lossy
Bits/(Pixel*Frame) : 0.513
Time code of first frame : 00:00:00:00
Time code source : Group of pictures header
Stream size : 2.08 GiB (94%)
Audio
ID : 192 (0xC0)
Format : MPEG Audio
Format version : Version 1
Format profile : Layer 2
Duration : 55mn 50s
Bit rate mode : Constant
Bit rate : 256 Kbps
Channel count : 2 channels
Sampling rate : 48.0 KHz
Compression mode : Lossy
Delay relative to video : 21ms
Stream size : 102 MiB (4%)
General
Complete name : D:\MPG\Франция 1788\ФРАНЦИЯ 1788 5 (Россия К).mpg
Format : MPEG-PS
File size : 2.18 GiB
Duration : 54mn 55s
Overall bit rate mode : Variable
Overall bit rate : 5 692 Kbps
Video
ID : 224 (0xE0)
Format : MPEG Video
Format version : Version 2
Format profile : Main@Main
Format settings, BVOP : Yes
Format settings, Matrix : Custom
Format settings, GOP : M=3, N=15
Duration : 54mn 55s
Bit rate mode : Variable
Bit rate : 5 323 Kbps
Maximum bit rate : 15.0 Mbps
Width : 720 pixels
Height : 576 pixels
Display aspect ratio : 4:3
Frame rate : 25.000 fps
Standard : PAL
Color space : YUV
Chroma subsampling : 4:2:0
Bit depth : 8 bits
Scan type : Interlaced
Scan order : Top Field First
Compression mode : Lossy
Bits/(Pixel*Frame) : 0.513
Time code of first frame : 00:00:00:00
Time code source : Group of pictures header
Stream size : 2.04 GiB (94%)
Audio
ID : 192 (0xC0)
Format : MPEG Audio
Format version : Version 1
Format profile : Layer 2
Duration : 54mn 55s
Bit rate mode : Constant
Bit rate : 256 Kbps
Channel count : 2 channels
Sampling rate : 48.0 KHz
Compression mode : Lossy
Delay relative to video : 8ms
Stream size : 101 MiB (4%)
General
Complete name : D:\MPG\Франция 1788\ФРАНЦИЯ 1788 6 (Россия К).mpg
Format : MPEG-PS
File size : 2.21 GiB
Duration : 55mn 32s
Overall bit rate mode : Variable
Overall bit rate : 5 693 Kbps
Video
ID : 224 (0xE0)
Format : MPEG Video
Format version : Version 2
Format profile : Main@Main
Format settings, BVOP : Yes
Format settings, Matrix : Custom
Format settings, GOP : M=3, N=15
Duration : 55mn 32s
Bit rate mode : Variable
Bit rate : 5 323 Kbps
Maximum bit rate : 15.0 Mbps
Width : 720 pixels
Height : 576 pixels
Display aspect ratio : 4:3
Frame rate : 25.000 fps
Standard : PAL
Color space : YUV
Chroma subsampling : 4:2:0
Bit depth : 8 bits
Scan type : Interlaced
Scan order : Top Field First
Compression mode : Lossy
Bits/(Pixel*Frame) : 0.513
Time code of first frame : 00:00:00:00
Time code source : Group of pictures header
Stream size : 2.07 GiB (94%)
Audio
ID : 192 (0xC0)
Format : MPEG Audio
Format version : Version 1
Format profile : Layer 2
Duration : 55mn 32s
Bit rate mode : Constant
Bit rate : 256 Kbps
Channel count : 2 channels
Sampling rate : 48.0 KHz
Compression mode : Lossy
Stream size : 102 MiB (4%)

Скриншот c названием фильма

[Профиль] [ЛС]

Создавать темы 06-Авг-2015 23:09 (спустя 11 месяцев 21 день)

Топик был перенесен из форума Фильмы до 2014 года в форум Фильмы до 2012 года
sergej644
 

Создавать темы 12-Июн-2016 07:54 (спустя 1 год 9 месяцев)

Топик был перенесен из форума Фильмы 2011 года в форум Фильмы 2010 года
Russian Mafia
 
Кто просматривает тему:

Форум Тема Автор Размер
Pop (Pop) VA - Золотые хиты Французской эстарады - 2015, MP3, 128 kbps Magnat 699 MB
Фильмы 2011 года 13 квадратных метров / 13m2 (Бартелеми Гроссманн / Barthelemy Grossmann) [2007, Франция, криминальная драма, триллер, DVB -> DVD] Original (Fre) + Sub (Rus, Eng, Fre, Deu) TorrentFilm 1.95 GB
Фильмы 2014 года 13-й район: Кирпичные особняки / Brick Mansions (Камиль Деламарр / Camille Delamarre) [2014, Франция, Боевик, криминал, WEB-DLRip] Dub bot 1.46 GB
Фильмы 2014 года 13-й район: Кирпичные особняки / Brick Mansions (Камиль Деламарр / Camille Delamarre) [2014, Франция, Канада, боевик, драма, криминал,WEBRip] Dub bot 703 MB
Фильмы 2014 года 13-й район: Кирпичные особняки / Brick Mansions (Камиль Деламарр / Camille Delamarre) [2014, Франция, Канада, боевик, криминал, BDRip, 720p] Dub (Студия "CineLab SoundMix") sergej644 4.85 GB
Фильмы (HD Rips | 720p, 1080p) 15 дней в другом мире / 15 jours ailleurs (Дидье Бивель / Didier Bivel) [2013, Франция, драма, HDTV 1080i] MVO reversefile 5.84 GB
Фильмы 2014 года 3 дня на убийство / 3 Days to Kill (МакДжи / McG) [2014 г., США, Франция, Греция, Россия, боевик, криминал, триллер, драма, комедия, HDRip-AVC] [Театральная версия / Theatrical Cut] Dub + Original... bot 1.46 GB
Фильмы 2014 года 3 дня на убийство / 3 Days to Kill (МакДжи / McG) [2014 г., США, Франция, Греция, Россия, боевик, криминал, триллер, драма, комедия, HDRip] [Театральная версия / Theatrical Cut] Dub bot 750 MB
Показать сообщения:    

Текущее время: Сегодня 07:04

Часовой пояс: GMT



Вы не можете начинать темы
Вы не можете отвечать на сообщения
Вы не можете редактировать свои сообщения
Вы не можете удалять свои сообщения
Вы не можете голосовать в опросах
Вы не можете прикреплять файлы к сообщениям
Вы не можете скачивать файлы