Франклин / Franklyn (Джеральд МакМорроу / Gerald McMorrow) [2008, Франция, Великобритания, фантастика, фэнтези, триллер, драма, BDRip] MVO (R5, Lizard Cinema) + DVO

 
Автор Сообщение

TorrentFilm ®

Пол:

Стаж: 2 года

Сообщений: 7741



Награды: Нет

Торрент-статистика

Создавать темы 07-Май-2015 00:03

[Цитировать]

Франклин / Franklyn- Год выпуска: 2008
Страна: Франция, Великобритания
Жанр: фантастика, фэнтези, триллер, драма
Продолжительность: 01:37:55
Перевод: Профессиональный (многоголосый, закадровый) R5, «Lizard Cinema»
+ Профессиональный (двухголосый, закадровый) (отдельно)
Субтитры: нет-Режиссер: Джеральд МакМорроу / Gerald McMorrow
В ролях: Ева Грин, Райан Филипп, Сэм Райли, Бернард Хилл, Джеймс Фолкнер, Стивен Уолтерс, Арт Малик, Сюзанна Йорк, Ричард Койл, Кика Маркам
О фильме: В основе сюжета положены судьбы четырёх главных героев. Эссер — старый сломленный жизнью человек, скитающийся по переполненным бездомными и нищими улицам города в поисках своего пропавшего сына.
Майло — тридцатилетний мужчина, отчаянно пытающийся вернуть себе чистоту первой любви. Эмилия — прекрасная студентка факультета искусств, чьи работы наполнены суицидальными мыслями и смертью.
Прист — безжалостный детектив, ищущий возмездия на улицах метрополиса под названием Meanwhile City, гигантского монолита, управляемого религиозными фанатиками.
Эти четверо людей — радикально разные, но в результате их миры столкнутся друг с другом и в стремительном финале полёт одной-единственной пули разрешит судьбу героев.-Релиз:
Автор: yaroslaigor
Качество: BDRip (источник: WSmit60 / BD-Remux / 1080p)
Формат: AVI
Видео: 720x304 (2.37:1), 24 fps, XviD build 65 ~1730 kbps avg, 0.33 bit/pixel
Аудио #1: 48 kHz, AC3 Dolby Digital, 3/2 (L,C,R,l,r) + LFE ch, ~384.00 kbps avg mvo
Аудио #2: 48 kHz, AC3 Dolby Digital, 3/2 (L,C,R,l,r) + LFE ch, ~384.00 kbps avg (отдельно) dvo
Размер: 1487.35 Mb (1/3 DVD-R)
Скачать: Семпл-

Кадры из фильма


-

Mi

Формат : AVI
Формат/Информация : Audio Video Interleave
Размер файла : 1,45 Гбайт
Продолжительность : 1 ч. 37 м.
Общий поток : 2124 Кбит/сек
Название фильма : Франклин / Franklyn (2008) BDRip
Режиссёр : yaroslaigor
Жанр : фантастика, фэнтези, драма
Программа кодирования : VirtualDubMod 1.5.10.2 (build 2542/release)
Примечание : 02.05.2015
Видео
Идентификатор : 0
Формат : MPEG-4 Visual
Профиль формата : Advanced Simple@L5
Параметр BVOP формата : 1
Параметр QPel формата : Нет
Параметр GMC формата : Без точки перехода
Параметр матрицы формата : Выборочная
Идентификатор кодека : XVID
Идентификатор кодека/Подсказка : XviD
Продолжительность : 1 ч. 37 м.
Битрейт : 1730 Кбит/сек
Ширина : 720 пикселей
Высота : 304 пикселя
Соотношение сторон : 2,35:1
Частота кадров : 24,000 кадра/сек
Цветовое пространство : YUV
Субдискретизация насыщенности : 4:2:0
Битовая глубина : 8 бит
Тип развёртки : Прогрессивная
Метод сжатия : С потерями
Бит/(Пиксели*Кадры) : 0.329
Размер потока : 1,18 Гбайт (81%)
Библиотека кодирования : XviD 65
Аудио
Идентификатор : 1
Формат : AC-3
Формат/Информация : Audio Coding 3
Расширение режима : CM (complete main)
Параметр Endianness формата : Big
Идентификатор кодека : 2000
Продолжительность : 1 ч. 37 м.
Вид битрейта : Постоянный
Битрейт : 384 Кбит/сек
Каналы : 6 каналов
Расположение каналов : Front: L C R, Side: L R, LFE
Частота : 48,0 КГц
Битовая глубина : 16 бит
Метод сжатия : С потерями
Размер потока : 269 Мбайт (18%)
Выравнивание : Разделение по промежуткам
Продолжительность промежутка : 42 мс. (1,00 видеокадр)
Время предзагрузки промежутка : 500 мс.
-
[Профиль] [ЛС]

Создавать темы 06-Авг-2015 22:35 (спустя 2 месяца 30 дней)

Топик был перенесен из форума Фильмы до 2014 года в форум Фильмы до 2012 года
sergej644
 

Создавать темы 12-Июн-2016 08:51 (спустя 1 год 1 месяц)

Топик был перенесен из форума Фильмы 2011 года в форум Фильмы 2006-2008 года
Russian Mafia
 
Кто просматривает тему:

Форум Тема Автор Размер
Фильмы 2011 года 99 франков / 99 francs (Жан Коунен / Jan Kounen) [2007 г., драма, комедия, BDRip-AVC] Dub + Original + Subs (rus, eng) painkiller 3.94 GB
Фильмы 2011 года 99 франков / 99 francs (Ян Кунен / Jan Kounen) [2007, Франция, драма, комедия, BDRip] Dub (Мосфильм-Мастер) TorrentFilm 1.46 GB
Фильмы 2011 года 99 франков / 99 francs (Ян Кунен / Jan Kounen) [2007, Франция, драма, комедия, BDRip] Dub (Мосфильм-Мастер) + Original (fre) + sub (rus, eng) TorrentFilm 2.19 GB
National Geographic NG: ЭкзоМарс: В поисках жизни / ExoMars: The Hunt for Life (Франкос Помес / François Pomès) [2015 г., Документальный, научно-познавательный, космос, HDTVRip 720p] skorpionN 1.5 GB
Фильмы 2016 года Акула-Франкенштейн / Sharkenstein (2016) WEB-DLRip | L достали все 1.37 GB
Фильмы (HD DVD, Blu-ray и BDRemux) Виктор Франкенштейн / Victor Frankenstein (2015) BDRemux 1080p | Лицензия Russian Mafia 28.59 GB
Фильмы (HD Rips | 720p, 1080p) Виктор Франкенштейн / Victor Frankenstein (2015) BDRip 1080p | iTunes BOSS 10.2 GB
Фильмы (HD Rips | 720p, 1080p) Виктор Франкенштейн / Victor Frankenstein (2015) BDRip 1080p | Лицензия достали все 13.14 GB
Показать сообщения:    

Текущее время: Сегодня 18:27

Часовой пояс: GMT



Вы не можете начинать темы
Вы не можете отвечать на сообщения
Вы не можете редактировать свои сообщения
Вы не можете удалять свои сообщения
Вы не можете голосовать в опросах
Вы не можете прикреплять файлы к сообщениям
Вы не можете скачивать файлы