Франклин / Franklyn (Джеральд МакМорроу / Gerald McMorrow) [2008, Франция, Великобритания, фантастика, фэнтези, триллер, драма, BDRip] MVO + DVO + Sub Rus, Eng + Original Eng

 
Автор Сообщение

TorrentFilm ®

Пол:

Стаж: 2 года

Сообщений: 7741



Награды: Нет

Торрент-статистика

Создавать темы 25-Апр-2015 00:04

[Цитировать]

Франклин / Franklyn
Страна: Франция, Великобритания
Студия: Aramid Entertainment Fund, Film4, Recorded Picture Company (RPC), UK Film Council
Жанр: фантастика, фэнтези, триллер, драма
Год выпуска: 2008
Продолжительность: 01:37:57
Перевод 1: Профессиональный (многоголосый закадровый) «Lizard Cinema Trade»
Перевод 2: Профессиональный (двухголосый закадровый)
Cубтитры: русские, английские
Оригинальная аудиодорожка: английский
Режиссер: Джеральд МакМорроу / Gerald McMorrow
В ролях: Ева Грин, Райан Филипп, Сэм Райли, Бернард Хилл, Джеймс Фолкнер, Стивен Уолтерс, Арт Малик, Сюзанна Йорк, Ричард Койл, Кика Маркам
Описание: В основе сюжета положены судьбы четырёх главных героев. Эссер — старый сломленный жизнью человек, скитающийся по переполненным бездомными и нищими улицам города в поисках своего пропавшего сына.
Майло — тридцатилетний мужчина, отчаянно пытающийся вернуть себе чистоту первой любви. Эмилия — прекрасная студентка факультета искусств, чьи работы наполнены суицидальными мыслями и смертью.
Прист — безжалостный детектив, ищущий возмездия на улицах метрополиса под названием Meanwhile City, гигантского монолита, управляемого религиозными фанатиками.
Эти четверо людей — радикально разные, но в результате их миры столкнутся друг с другом и в стремительном финале полёт одной-единственной пули разрешит судьбу героев.
Сэмпл: http://multi-up.com/1044470
Тип релиза: BDRip (исх.BDRemux)
Контейнер: AVI
Видео: XviD, 2265 kbps, 720 х 304 pixels, 24.000 fps
Аудио 1: Russian / Dolby Digital Audio / 5.1 / 48 kHz / 384 kbps - многоголосый
Аудио 2: Russian / Dolby Digital Audio / 5.1 / 48 kHz / 384 kbps - двухголосый (отдельным файлом)
Аудио 3: English / Dolby Digital Audio / 5.1 / 48 kHz / 448 kbps
Формат субтитров: softsub (SRT)

MediaInfo

General
Complete name : D:\kirovtorrent\Franklyn.2008\Franklyn.2008.BDRip.avi
Format : AVI
Format/Info : Audio Video Interleave
Format profile : OpenDML
File size : 2.13 GiB
Duration : 1h 37mn
Overall bit rate : 3 115 Kbps
Writing application : VirtualDubMod 1.5.10.3 | www.virtualdub-fr.org || (build 2550/release)
Writing library : VirtualDubMod build 2550/release
Video
ID : 0
Format : MPEG-4 Visual
Format profile : Advanced Simple@L5
Format settings, BVOP : 1
Format settings, QPel : No
Format settings, GMC : No warppoints
Format settings, Matrix : Default (MPEG)
Codec ID : XVID
Codec ID/Hint : XviD
Duration : 1h 37mn
Bit rate : 2 265 Kbps
Width : 720 pixels
Height : 304 pixels
Display aspect ratio : 2.35:1
Frame rate : 24.000 fps
Color space : YUV
Chroma subsampling : 4:2:0
Bit depth : 8 bits
Scan type : Progressive
Compression mode : Lossy
Bits/(Pixel*Frame) : 0.431
Stream size : 1.55 GiB (73%)
Writing library : XviD 73
Audio #1
ID : 1
Format : AC-3
Format/Info : Audio Coding 3
Mode extension : CM (complete main)
Format settings, Endianness : Big
Codec ID : 2000
Duration : 1h 37mn
Bit rate mode : Constant
Bit rate : 384 Kbps
Channel(s) : 6 channels
Channel positions : Front: L C R, Side: L R, LFE
Sampling rate : 48.0 KHz
Bit depth : 16 bits
Compression mode : Lossy
Stream size : 269 MiB (12%)
Alignment : Split accross interleaves
Interleave, duration : 42 ms (1.00 video frame)
Interleave, preload duration : 500 ms
Audio #2
ID : 2
Format : AC-3
Format/Info : Audio Coding 3
Mode extension : CM (complete main)
Format settings, Endianness : Big
Codec ID : 2000
Duration : 1h 37mn
Bit rate mode : Constant
Bit rate : 448 Kbps
Channel(s) : 6 channels
Channel positions : Front: L C R, Side: L R, LFE
Sampling rate : 48.0 KHz
Bit depth : 16 bits
Compression mode : Lossy
Stream size : 314 MiB (14%)
Alignment : Split accross interleaves
Interleave, duration : 42 ms (1.00 video frame)
Interleave, preload duration : 500 ms

Скриншоты

[Профиль] [ЛС]

Создавать темы 06-Авг-2015 22:35 (спустя 3 месяца 11 дней)

Топик был перенесен из форума Фильмы до 2014 года в форум Фильмы до 2012 года
sergej644
 

Создавать темы 12-Июн-2016 08:51 (спустя 1 год 1 месяц)

Топик был перенесен из форума Фильмы 2011 года в форум Фильмы 2006-2008 года
Russian Mafia
 
Кто просматривает тему:

Форум Тема Автор Размер
Фильмы 2011 года 99 франков / 99 francs (Жан Коунен / Jan Kounen) [2007 г., драма, комедия, BDRip-AVC] Dub + Original + Subs (rus, eng) painkiller 3.94 GB
Фильмы 2011 года 99 франков / 99 francs (Ян Кунен / Jan Kounen) [2007, Франция, драма, комедия, BDRip] Dub (Мосфильм-Мастер) TorrentFilm 1.46 GB
Фильмы 2011 года 99 франков / 99 francs (Ян Кунен / Jan Kounen) [2007, Франция, драма, комедия, BDRip] Dub (Мосфильм-Мастер) + Original (fre) + sub (rus, eng) TorrentFilm 2.19 GB
National Geographic NG: ЭкзоМарс: В поисках жизни / ExoMars: The Hunt for Life (Франкос Помес / François Pomès) [2015 г., Документальный, научно-познавательный, космос, HDTVRip 720p] skorpionN 1.5 GB
Фильмы 2016 года Акула-Франкенштейн / Sharkenstein (2016) WEB-DLRip | L достали все 1.37 GB
Фильмы (HD DVD, Blu-ray и BDRemux) Виктор Франкенштейн / Victor Frankenstein (2015) BDRemux 1080p | Лицензия Russian Mafia 28.59 GB
Фильмы (HD Rips | 720p, 1080p) Виктор Франкенштейн / Victor Frankenstein (2015) BDRip 1080p | iTunes BOSS 10.2 GB
Фильмы (HD Rips | 720p, 1080p) Виктор Франкенштейн / Victor Frankenstein (2015) BDRip 1080p | Лицензия достали все 13.14 GB
Показать сообщения:    

Текущее время: Сегодня 23:32

Часовой пояс: GMT



Вы не можете начинать темы
Вы не можете отвечать на сообщения
Вы не можете редактировать свои сообщения
Вы не можете удалять свои сообщения
Вы не можете голосовать в опросах
Вы не можете прикреплять файлы к сообщениям
Вы не можете скачивать файлы