Франкенштейн и монстр из ада / Frankenstein and the Monster from Hell (1973) BDRip 1080p | Р

 
Автор Сообщение

Russian Mafia ®

Пол:

Стаж: 1 год 8 месяцев

Сообщений: 4257



Награды: 10 (Подробнее)

Top Releaser 5 (Количество: 1) Mega Seeder 5 (Количество: 1) Top Releaser 4 (Количество: 1)
Торрент-статистика

Создавать темы 23-Сен-2016 07:32

[Цитировать]

Франкенштейн и монстр из ада / Frankenstein and the Monster from Hell
Страна: Великобритания
Производство: Hammer Film Productions Limited
Год выпуска: 1973
Жанр: ужасы, драма
Продолжительность: 01:34:57
Режиссер: Теренс Фишер
Автор сценария: Энтони Хиндс
В ролях: Питер Кушинг, Шэйн Брайант, Мадлен Смит, Дэвид Праус, Джон Стрэттон, Майкл Уорд, Элси Вагстафф, Норман Митчелл, Патрик Тротон
Описание: Это последний из фильмов о Франкенштейне о Бароне, который прячется в психиатрической больнице, чтобы и дальше проводить свои эксперименты по воскрешению мёртвых, вместе с соседом таким же душевнобольным доктором Хельдером...

Перевод: Профессиональный (многоголосый, закадровый) | 5 канал
Субтитры: английские (для слабослышащих)-Качество: BDRip 1080p
Формат: MKV
Видео кодек: AVC
Аудио кодек: АС3
Видео: 1800x1080 (5:3), 24.000 fps, MPEG-4 AVC ~19.9 Мbps avg
Аудио №1: 48.0 kHz, AC3 Dolby Digital, 2/0 (L,R) ch, ~192 kbps | RUS
Аудио №2: 48.0 kHz, AC3 Dolby Digital, 2/0 (L,R) ch, ~192 kbps | ENG
Формат субтитров: UTF-8 Plain Text
Дата премьеры (мир): 2 мая 1974

Media Info

Уникальный идентификатор : 216351198727599002048766942379224140452 (0xA2C3B9A7951D2A0891B20FA0FBD90AA4)
Полное имя : Франкенштейн и монстр из ада.1974.BDRip.1080p.mkv
Формат : Matroska
Версия формата : Version 4 / Version 2
Размер файла : 13,5 Гбайт
Продолжительность : 1 ч. 34 м.
Общий поток : 20,3 Мбит/сек
Дата кодирования : UTC 2016-09-21 11:54:23
Программа кодирования : mkvmerge v8.2.0 ('World of Adventure') 64bit
Библиотека кодирования : libebml v1.3.1 + libmatroska v1.4.2
Видео
Идентификатор : 1
Формат : AVC
Формат/Информация : Advanced Video Codec
Профиль формата : High@L4.1
Параметр CABAC формата : Да
Параметр ReFrames формата : 4 кадра
Идентификатор кодека : V_MPEG4/ISO/AVC
Продолжительность : 1 ч. 34 м.
Битрейт : 19,9 Мбит/сек
Ширина : 1800 пикселей
Высота : 1080 пикселей
Соотношение сторон : 5:3
Режим частоты кадров : Постоянный
Частота кадров : 24,000 кадра/сек
Цветовое пространство : YUV
Субдискретизация насыщенности : 4:2:0
Битовая глубина : 8 бит
Тип развёртки : Прогрессивная
Бит/(Пиксели*Кадры) : 0.427
Размер потока : 13,2 Гбайт (98%)
Библиотека кодирования : x264 core 146 r2538 121396c
Настройки программы : cabac=1 / ref=4 / deblock=1:-3:-3 / analyse=0x3:0x113 / me=umh / subme=10 / psy=1 / psy_rd=1.00:0.15 / mixed_ref=1 / me_range=32 / chroma_me=1 / trellis=2 / 8x8dct=1 / cqm=0 / deadzone=21,11 / fast_pskip=1 / chroma_qp_offset=-3 / threads=6 / lookahead_threads=1 / sliced_threads=0 / nr=0 / decimate=1 / interlaced=0 / bluray_compat=0 / constrained_intra=0 / bframes=11 / b_pyramid=2 / b_adapt=2 / b_bias=0 / direct=1 / weightb=1 / open_gop=0 / weightp=2 / keyint=230 / keyint_min=23 / scenecut=40 / intra_refresh=0 / rc_lookahead=40 / rc=crf / mbtree=0 / crf=20.5 / qcomp=0.60 / qpmin=0 / qpmax=69 / qpstep=4 / vbv_maxrate=40000 / vbv_bufsize=50000 / crf_max=0.0 / nal_hrd=none / filler=0 / ip_ratio=1.40 / pb_ratio=1.30 / aq=1:1.00
Язык : English
Default : Да
Forced : Нет
Аудио #1
Идентификатор : 2
Формат : AC-3
Формат/Информация : Audio Coding 3
Расширение режима : CM (complete main)
Параметр Endianness формата : Big
Идентификатор кодека : A_AC3
Продолжительность : 1 ч. 34 м.
Вид битрейта : Постоянный
Битрейт : 192 Кбит/сек
Каналы : 2 канала
Расположение каналов : Front: L R
Частота : 48,0 КГц
Частота кадров : 31,250 кадров/сек (1536 spf)
Метод сжатия : С потерями
Размер потока : 130 Мбайт (1%)
Заголовок : MVO (Спб, 5 канал)
Язык : Russian
Default : Да
Forced : Нет
Аудио #2
Идентификатор : 3
Формат : AC-3
Формат/Информация : Audio Coding 3
Расширение режима : CM (complete main)
Параметр Endianness формата : Big
Идентификатор кодека : A_AC3
Продолжительность : 1 ч. 34 м.
Вид битрейта : Постоянный
Битрейт : 192 Кбит/сек
Каналы : 2 канала
Расположение каналов : Front: L R
Частота : 48,0 КГц
Частота кадров : 31,250 кадров/сек (1536 spf)
Метод сжатия : С потерями
Размер потока : 130 Мбайт (1%)
Заголовок : original
Язык : English
Default : Нет
Forced : Нет
Текст
Идентификатор : 4
Формат : UTF-8
Идентификатор кодека : S_TEXT/UTF8
Идентификатор кодека/Информация : UTF-8 Plain Text
Продолжительность : 1 ч. 31 м.
Битрейт : 44 бит/сек
Count of elements : 906
Размер потока : 29,7 Кбайт (0%)
Заголовок : английские (для слабослышащих)
Язык : English
Default : Нет
Forced : Нет

Скриншоты

[Профиль] [ЛС]
Кто просматривает тему:

Форум Тема Автор Размер
Фильмы 2011 года 99 франков / 99 francs (Жан Коунен / Jan Kounen) [2007 г., драма, комедия, BDRip-AVC] Dub + Original + Subs (rus, eng) painkiller 3.94 GB
Фильмы 2011 года 99 франков / 99 francs (Ян Кунен / Jan Kounen) [2007, Франция, драма, комедия, BDRip] Dub (Мосфильм-Мастер) TorrentFilm 1.46 GB
Фильмы 2011 года 99 франков / 99 francs (Ян Кунен / Jan Kounen) [2007, Франция, драма, комедия, BDRip] Dub (Мосфильм-Мастер) + Original (fre) + sub (rus, eng) TorrentFilm 2.19 GB
National Geographic NG: ЭкзоМарс: В поисках жизни / ExoMars: The Hunt for Life (Франкос Помес / François Pomès) [2015 г., Документальный, научно-познавательный, космос, HDTVRip 720p] skorpionN 1.5 GB
Фильмы 2016 года Акула-Франкенштейн / Sharkenstein (2016) WEB-DLRip | L достали все 1.37 GB
Фильмы (HD DVD, Blu-ray и BDRemux) Виктор Франкенштейн / Victor Frankenstein (2015) BDRemux 1080p | Лицензия Russian Mafia 28.59 GB
Фильмы (HD Rips | 720p, 1080p) Виктор Франкенштейн / Victor Frankenstein (2015) BDRip 1080p | iTunes BOSS 10.2 GB
Фильмы (HD Rips | 720p, 1080p) Виктор Франкенштейн / Victor Frankenstein (2015) BDRip 1080p | Лицензия достали все 13.14 GB
Показать сообщения:    

Текущее время: Сегодня 06:24

Часовой пояс: GMT



Вы не можете начинать темы
Вы не можете отвечать на сообщения
Вы не можете редактировать свои сообщения
Вы не можете удалять свои сообщения
Вы не можете голосовать в опросах
Вы не можете прикреплять файлы к сообщениям
Вы не можете скачивать файлы