Фраккия против Дракулы / Fracchia contro Dracula (Нери Паренти) [1985 г., комедия, DVDRip-AVC] [DVO, AVO]

 
Автор Сообщение

Bathory ®

Пол:

Стаж: 8 месяцев 28 дней

Сообщений: 168



Награды: 3 (Подробнее)

Друг (Количество: 1) Girls (Количество: 1) За внесенный вклад в развитие сайта (Количество: 1)
Торрент-статистика

Создавать темы 26-Апр-2016 15:52

[Цитировать]

Фраккия против Дракулы / Fracchia contro Dracula- Информация о фильме
Название: Фраккия против Дракулы
Оригинальное название: Fracchia contro Dracula
Год выхода: 1985
Жанр: комедия
Режиссер: Нери Паренти
В ролях: Паоло Вилладжо, Эдмунд Пурдом, Жижи Редер, Ания Пьерони, Федерика Брайон, Джузеппе Чедерна, Сузанна Мартинкова, Андреа Гнекко, Филиппо Де Гара, Пауль Мюллер
О фильме:
Комедия ужасов, пародирующая стереотипы и штампы жанра. Застенчивый агент по продаже недвижимости Джандоменико Фраккиа получает ультиматум: или он наконец-то продаст хоть одному клиенту хоть один дом, или вылетит с работы.
И компьютер показывает Фраккии отвечающий всем требованиям клиента особняк — замок в Трансильвании, построенный в незапамятные времена и принадлежавший некоему графу Владу. Джандоменико едет в Трансильванию вместе с клиентом, а Влад, он же, Дракула, встает из гроба…

Страна: Италия
Студия: Faso Film, Maura International Films
Продолжительность: 01:27:11
Перевод:
1: Профессиональный (двухголосый закадровый) НТВ
2: Авторский (одноголосый закадровый) Владимир Штейн
Файл
Кодек: AVC
Качество: DVDRip-AVC
Видео: 704x560@996x560, 2008 kbps, 25 fps, 0,204 Bits/(Pixel*Frame)
Звук:
1. AC3, 48 kHz, 2 ch, 192 kbps - RUS [DVO]
2. AC3, 48 kHz, 2 ch, 192 kbps - RUS [AVO]
Субтитры: Нет

MI

General
Unique ID : 179012884137242155273461563146448477334 (0x86ACA09D3A48231786EF3C671FFD1C96)
Complete name : E:\Fracchia.contro.Dracula.1985.DVDRip-AVC_by_Bathory.mkv
Format : Matroska
Format version : Version 2
File size : 1.46 GiB
Duration : 1h 27mn
Overall bit rate : 2 394 Kbps
Encoded date : UTC 2016-04-25 22:13:12
Writing application : mkvmerge v9.1.0 ('Little Earthquakes') 32bit
Writing library : libebml v1.3.3 + libmatroska v1.4.4
DURATION : 01:27:10.976000000
NUMBER_OF_FRAMES : 163468
NUMBER_OF_BYTES : 125543424
_STATISTICS_WRITING_APP : mkvmerge v9.1.0 ('Little Earthquakes') 32bit
_STATISTICS_WRITING_DATE_UTC : 2016-04-25 22:13:12
_STATISTICS_TAGS : BPS DURATION NUMBER_OF_FRAMES NUMBER_OF_BYTES
Video
ID : 1
Format : AVC
Format/Info : Advanced Video Codec
Format profile : High@L4.1
Format settings, CABAC : Yes
Format settings, ReFrames : 12 frames
Codec ID : V_MPEG4/ISO/AVC
Duration : 1h 27mn
Bit rate : 2 008 Kbps
Width : 704 pixels
Height : 560 pixels
Display aspect ratio : 16:9
Original display aspect ratio : 16:9
Frame rate mode : Constant
Frame rate : 25.000 fps
Color space : YUV
Chroma subsampling : 4:2:0
Bit depth : 8 bits
Scan type : Progressive
Bits/(Pixel*Frame) : 0.204
Stream size : 1.20 GiB (82%)
Writing library : x264 core 148 r2692 64f4e24
Encoding settings : cabac=1 / ref=12 / deblock=1:-2:-2 / analyse=0x3:0x133 / me=umh / subme=11 / psy=1 / psy_rd=1.16:0.14 / mixed_ref=1 / me_range=32 / chroma_me=1 / trellis=2 / 8x8dct=1 / cqm=0 / deadzone=21,11 / fast_pskip=0 / chroma_qp_offset=-3 / threads=12 / lookahead_threads=3 / sliced_threads=0 / nr=0 / decimate=0 / interlaced=0 / bluray_compat=0 / constrained_intra=0 / bframes=16 / b_pyramid=2 / b_adapt=2 / b_bias=0 / direct=3 / weightb=1 / open_gop=0 / weightp=2 / keyint=250 / keyint_min=25 / scenecut=0 / intra_refresh=0 / rc_lookahead=60 / rc=2pass / mbtree=1 / bitrate=2008 / ratetol=1.0 / qcomp=0.70 / qpmin=0 / qpmax=69 / qpstep=4 / cplxblur=15.0 / qblur=0.5 / vbv_maxrate=50000 / vbv_bufsize=62500 / nal_hrd=none / filler=0 / ip_ratio=1.40 / aq=2:1.00
Default : Yes
Forced : No
Audio #1
ID : 2
Format : AC-3
Format/Info : Audio Coding 3
Mode extension : CM (complete main)
Format settings, Endianness : Big
Codec ID : A_AC3
Duration : 1h 27mn
Bit rate mode : Constant
Bit rate : 192 Kbps
Channel(s) : 2 channels
Channel positions : Front: L R
Sampling rate : 48.0 KHz
Bit depth : 16 bits
Compression mode : Lossy
Stream size : 120 MiB (8%)
Language : new
Default : Yes
Forced : No
Audio #2
ID : 3
Format : AC-3
Format/Info : Audio Coding 3
Mode extension : CM (complete main)
Format settings, Endianness : Big
Codec ID : A_AC3
Duration : 1h 27mn
Bit rate mode : Constant
Bit rate : 192 Kbps
Channel(s) : 2 channels
Channel positions : Front: L R
Sampling rate : 48.0 KHz
Bit depth : 16 bits
Compression mode : Lossy
Stream size : 120 MiB (8%)
Language : new
Default : No
Forced : No

Скриншоты

Анаморфные скриншоты

Автор рипа: Bathory
[Профиль] [ЛС]
Кто просматривает тему:

Показать сообщения:    

Текущее время: Сегодня 14:36

Часовой пояс: GMT



Вы не можете начинать темы
Вы не можете отвечать на сообщения
Вы не можете редактировать свои сообщения
Вы не можете удалять свои сообщения
Вы не можете голосовать в опросах
Вы не можете прикреплять файлы к сообщениям
Вы не можете скачивать файлы