Форт Росс: В поисках приключений (2014) DVDRip от New-Team | лицензия

 
Автор Сообщение

sergej644 ®

Пол:

Стаж: 4 года 11 месяцев

Сообщений: 6046

Откуда: Soviet Union



Награды: Нет

Торрент-статистика

Создавать темы 08-Янв-2015 00:08

[Цитировать]

--Форт Росс: В поисках приключений (2014)
-Страна: Россия / Dreamteam Media, Kinokompaniya «MorozFilm», Ministerstvo kultury Rossiyskoy Federatsii, U-Film Malta
Жанр: приключения, фантастика
Год выпуска: 2014
Продолжительность: 01:36:10
Перевод: Не требуется
Cубтитры: нет
Оригинальная аудиодорожка: русский
Режиссер: Юрий Мороз
В ролях: Максим Матвеев, Анна Старшенбаум, Максим Виноградов, Лайа Коста, Кирилл Плетнёв, Хосе Анхель Эхидо, Михаил Горевой, Андрей Мерзликин, Рамон Ланга, Амаду Мамадаков...
Описание: Раскрыта одна из главных интриг российской истории! Как вышло, что в XIX веке Россия навсегда лишилась своих земель в Северной Америке? Ведь ей принадлежала огромная территория от Аляски до Северной Калифорнии! В поисках ответа группа тележурналистов — интеллектуал Дмитрий, простодушный Фимка и красавица Марго — путешествуют во времени и пространстве, попадая то в царские дворцы, то в вигвамы индейцев.

Качество: DVDRip / DVD5 R5 от «CD Land»
Формат: AVI
Видео: 704x304 (2.32:1), 25.000 fps, XviD, ~1711 kbps avg, 0.320 bit/pix
Аудио: 48 kHz, Dolby AC3, 6 ch, 448 kbps, русский

MediaInfo

General
Format                                   : AVI
Format/Info                              : Audio Video Interleave
File size                                : 1.46 GiB
Duration                                 : 1h 36mn
Overall bit rate                         : 2 169 Kbps
Writing application                      : VirtualDubMod 1.5.10.3 | www.virtualdub-fr.org || (build 2550/release)
Writing library                          : VirtualDubMod build 2550/release
Video
ID                                       : 0
Format                                   : MPEG-4 Visual
Format profile                           : Advanced Simple@L5
Format settings, BVOP                    : 1
Format settings, QPel                    : No
Format settings, GMC                     : No warppoints
Format settings, Matrix                  : Custom
Codec ID                                 : XVID
Codec ID/Hint                            : XviD
Duration                                 : 1h 36mn
Bit rate                                 : 1 711 Kbps
Width                                    : 704 pixels
Height                                   : 304 pixels
Display aspect ratio                     : 2.35:1
Frame rate                               : 25.000 fps
Color space                              : YUV
Chroma subsampling                       : 4:2:0
Bit depth                                : 8 bits
Scan type                                : Progressive
Compression mode                         : Lossy
Bits/(Pixel*Frame)                       : 0.320
Stream size                              : 1.15 GiB (79%)
Writing library                          : XviD 73
Audio
ID                                       : 1
Format                                   : AC-3
Format/Info                              : Audio Coding 3
Mode extension                           : CM (complete main)
Format settings, Endianness              : Big
Codec ID                                 : 2000
Duration                                 : 1h 36mn
Bit rate mode                            : Constant
Bit rate                                 : 448 Kbps
Channel(s)                               : 6 channels
Channel positions                        : Front: L C R, Side: L R, LFE
Sampling rate                            : 48.0 KHz
Bit depth                                : 16 bits
Compression mode                         : Lossy
Stream size                              : 308 MiB (21%)
Alignment                                : Split accross interleaves
Interleave, duration                     : 40 ms (1.00 video frame)
Interleave, preload duration             : 500 ms

Скриншоты:

--
[Профиль] [ЛС]
Кто просматривает тему:

Показать сообщения:    

Текущее время: Сегодня 18:49

Часовой пояс: GMT



Вы не можете начинать темы
Вы не можете отвечать на сообщения
Вы не можете редактировать свои сообщения
Вы не можете удалять свои сообщения
Вы не можете голосовать в опросах
Вы не можете прикреплять файлы к сообщениям
Вы не можете скачивать файлы