Форс-мажор / Turist (2014) BDRip 1080p | iTunes

 
Автор Сообщение

BOSS ®

Пол:

Стаж: 2 года 2 месяца

Сообщений: 3751

Откуда: ODESSA



Награды: 20 (Подробнее)

Top Releaser 4 (Количество: 1) Mega Releaser 2 (Количество: 1) Mega Seeder 4 (Количество: 1)
Торрент-статистика

Создавать темы 13-Ноя-2015 16:52

[Цитировать]

Информация о фильме
Название: Форс-мажор
Оригинальное название:Turist
Год выхода: 2014
Жанр: Драма, комедия
Режиссер: Рубен Эстлунд
В ролях: Клара Веттерген, Винсент Веттерген, Брэйди Корбет, Кристофер Хивью, Малин Даль
О фильме:
Зимний отпуск – это то время, когда правильный отец забывает о работе и посвящает себя любимой жене и любимым детям, выбрав идеальное место для идеального отдыха в идеальной стране. Утром все вместе завтракают, днем – вместе катаются на лыжах, перед сном – вместе чистят зубы. И до чего обидно, когда всего какая-то мелочь в виде непрошенной снежной лавины разрушает эту идиллическую картину: отец оказывается трусом, жена – истеричкой, да и все остальные пары вокруг начинают вызывать большие сомнения… Два научных исследования – о количестве разводов после угона самолетов и о поведении мужчин во время стихийных бедствий – стали подспорьем в ироничном семейном триллере Рубена Эстлунда, которому удается превратить в шутку даже музыку Вивальди и открыточные пейзажи Альп...

Страна: Швеция, Франция, Норвегия
Студия: Coproduction Office, Film i Väst
Продолжительность: 01:59:41
Озвучивание: Профессиональное многоголосое [iTunes]
Файл
Качество: BDRip 1080p
Видео: MPEG-4 AVC, 12000 Кбит/с, 1920x802
Звук: Русский (АС3, 6 ch, 384 Кбит/с), шведский (DTS, 6 ch, 1510 Кбит/с)
Субтитры: Отсутствуют

Скриншоты

MediaInfo

General
Unique ID : 216632837832031648072512677971738558836 (0xA2F9F788D828A57E99F111147DC50174)
Complete name : D:ВидеоF0Pc.Maj0P.2014.P.BDRip1080p.mkv
Format : Matroska
Format version : Version 4 / Version 2
File size : 11.8 GiB
Duration : 1h 59mn
Overall bit rate : 14.1 Mbps
Encoded date : UTC 2015-11-12 18:47:07
Writing application : mkvmerge v8.3.0 ('Over the Horizon') 64bit
Writing library : libebml v1.3.1 + libmatroska v1.4.2
DURATION : 01:59:41.185000000
NUMBER_OF_FRAMES : 673236
NUMBER_OF_BYTES : 1354550832
_STATISTICS_WRITING_APP : mkvmerge v8.3.0 ('Over the Horizon') 64bit
_STATISTICS_WRITING_DATE_UTC : 2015-11-12 18:47:07
_STATISTICS_TAGS : BPS DURATION NUMBER_OF_FRAMES NUMBER_OF_BYTES
Video
ID : 1
Format : AVC
Format/Info : Advanced Video Codec
Format profile : High@L4.1
Format settings, CABAC : Yes
Format settings, ReFrames : 5 frames
Codec ID : V_MPEG4/ISO/AVC
Duration : 1h 59mn
Bit rate : 12.0 Mbps
Width : 1 920 pixels
Height : 802 pixels
Display aspect ratio : 2.40:1
Frame rate mode : Constant
Frame rate : 23.976 fps
Color space : YUV
Chroma subsampling : 4:2:0
Bit depth : 8 bits
Scan type : Progressive
Bits/(Pixel*Frame) : 0.324
Stream size : 9.99 GiB (85%)
Writing library : x264 core 133 r2334 a3ac64b
Encoding settings : cabac=1 / ref=5 / deblock=1:-3:-3 / analyse=0x3:0x133 / me=umh / subme=10 / psy=1 / psy_rd=1.10:0.00 / mixed_ref=1 / me_range=24 / chroma_me=1 / trellis=2 / 8x8dct=1 / cqm=0 / deadzone=21,11 / fast_pskip=1 / chroma_qp_offset=-2 / threads=12 / lookahead_threads=2 / sliced_threads=0 / nr=0 / decimate=1 / interlaced=0 / bluray_compat=0 / constrained_intra=0 / bframes=7 / b_pyramid=2 / b_adapt=2 / b_bias=0 / direct=3 / weightb=1 / open_gop=0 / weightp=2 / keyint=250 / keyint_min=23 / scenecut=40 / intra_refresh=0 / rc=crf / mbtree=0 / crf=19.5 / qcomp=0.75 / qpmin=0 / qpmax=69 / qpstep=4 / ip_ratio=1.15 / pb_ratio=1.10 / aq=2:0.80
Default : Yes
Forced : No
Matrix coefficients : BT.709
DURATION : 01:59:41.133000000
NUMBER_OF_FRAMES : 172175
NUMBER_OF_BYTES : 10980527131
_STATISTICS_WRITING_APP : mkvmerge v8.3.0 ('Over the Horizon') 64bit
_STATISTICS_WRITING_DATE_UTC : 2015-11-12 18:47:07
_STATISTICS_TAGS : BPS DURATION NUMBER_OF_FRAMES NUMBER_OF_BYTES
Audio #1
ID : 2
Format : AC-3
Format/Info : Audio Coding 3
Mode extension : CM (complete main)
Format settings, Endianness : Big
Codec ID : A_AC3
Duration : 1h 59mn
Bit rate mode : Constant
Bit rate : 384 Kbps
Channel(s) : 6 channels
Channel positions : Front: L C R, Side: L R, LFE
Sampling rate : 48.0 KHz
Bit depth : 16 bits
Compression mode : Lossy
Stream size : 329 MiB (3%)
Language : Russian
Default : Yes
Forced : No
Audio #2
ID : 3
Format : DTS
Format/Info : Digital Theater Systems
Mode : 16
Format settings, Endianness : Big
Codec ID : A_DTS
Duration : 1h 59mn
Bit rate mode : Constant
Bit rate : 1 509 Kbps
Channel(s) : 6 channels
Channel positions : Front: L C R, Side: L R, LFE
Sampling rate : 48.0 KHz
Bit depth : 24 bits
Compression mode : Lossy
Stream size : 1.26 GiB (11%)
Language : Swedish
Default : No
Forced : No
Menu
00:00:00.000 : en:Chapter 1
00:03:07.896 : en:Chapter 2
00:10:51.651 : en:Chapter 3
00:14:29.952 : en:Chapter 4
00:28:59.863 : en:Chapter 5
00:35:44.434 : en:Chapter 6
00:45:30.019 : en:Chapter 7
01:00:27.791 : en:Chapter 8
01:12:43.568 : en:Chapter 9
01:28:43.568 : en:Chapter 10
01:40:38.115 : en:Chapter 11
01:57:33.088 : en:Chapter 12
[Профиль] [ЛС]
Кто просматривает тему:

Показать сообщения:    

Текущее время: Сегодня 00:31

Часовой пояс: GMT



Вы не можете начинать темы
Вы не можете отвечать на сообщения
Вы не можете редактировать свои сообщения
Вы не можете удалять свои сообщения
Вы не можете голосовать в опросах
Вы не можете прикреплять файлы к сообщениям
Вы не можете скачивать файлы