Форсаж 7 / Furious 7 (Джеймс Ван / James Wan) [2015, США, Боевик, триллер, криминал, BDRip] [Театральная версия / Theatrical cut] Dub

 
Автор Сообщение

TorrentFilm ®

Пол:

Стаж: 1 год 11 месяцев

Сообщений: 7741



Награды: Нет

Торрент-статистика

Создавать темы 27-Авг-2015 00:06

[Цитировать]

Форсаж 7 / Furious 7 / Театральная Версия / Theatrical Cut
Страна: США
Жанр: Боевик, триллер, криминал
Год выпуска: 2015
Продолжительность: 02:17:19
Перевод: Профессиональный (дублированный)
Cубтитры: нет
Режиссер: Джеймс Ван / James Wan
В ролях: Вин Дизель, Дуэйн Джонсон, Джейсон Стэйтем, Пол Уокер, Тайриз Гибсон, Лудакрис, Тони Джаа, Лукас Блэк, Мишель Родригес, Курт Расселл, Эльза Патаки, Джордана Брюстер, Натали Эммануэль, Галь Гадот, Джон Бразертон, Джимон Хонсу, Ноэль Гульеми, Али Фазал, Санг Кенг, Ронда Роуси, Гентри Уайт, Игги Азалия, Джон Ли Броди, Анна Колвелл, Виктор Эрнандез, Стив Култер, Роберт Пралго, Хорхе Феррагут, Бенжамин Бланкеншип
Описание: Они покорили Токио и Рио, Лос-Анджелес и Лондон. Но мир больше не играет по их правилам. Зной арабских пустынь, неприлично высокие небоскребы, миллионы долларов на колесах и очень, очень знаменитый злодей. Скорость не знает границ.
Сэмпл: http://sendfile.su/1148946
Качество видео: BDRip
Формат видео: AVI
Видео: 720x304 (2.35:1), 23.976 fps, XviD build 73 ~1818 kbps, 0.346 bit/pixel
Аудио: 48 kHz, AC3 Dolby Digital, 3/2 (L,C,R,l,r) + LFE ch, ~448 kbps

MediaInfo

Format : AVI
Format/Info : Audio Video Interleave
Format profile : OpenDML
File size : 2.19 GiB
Duration : 2h 17mn
Overall bit rate : 2 278 Kbps
Writing application : VirtualDubModRus 1.5.10.2 (build 2542/release)
Writing library : VirtualDubMod build 2542/release
Video
ID : 0
Format : MPEG-4 Visual
Format profile : Advanced Simple@L5
Format settings, BVOP : 1
Format settings, QPel : No
Format settings, GMC : No warppoints
Format settings, Matrix : Custom
Codec ID : XVID
Codec ID/Hint : XviD
Duration : 2h 17mn
Bit rate : 1 818 Kbps
Width : 720 pixels
Height : 304 pixels
Display aspect ratio : 2.35:1
Frame rate : 23.976 fps
Color space : YUV
Chroma subsampling : 4:2:0
Bit depth : 8 bits
Scan type : Progressive
Compression mode : Lossy
Bits/(Pixel*Frame) : 0.346
Stream size : 1.74 GiB (80%)
Writing library : XviD 73
Audio
ID : 1
Format : AC-3
Format/Info : Audio Coding 3
Mode extension : CM (complete main)
Format settings, Endianness : Big
Codec ID : 2000
Duration : 2h 17mn
Bit rate mode : Constant
Bit rate : 448 Kbps
Channel(s) : 6 channels
Channel positions : Front: L C R, Side: L R, LFE
Sampling rate : 48.0 KHz
Bit depth : 16 bits
Compression mode : Lossy
Stream size : 440 MiB (20%)
Alignment : Split accross interleaves
Interleave, duration : 42 ms (1.00 video frame)
Interleave, preload duration : 500 ms

Скриншот c названием фильма

Скриншоты




[Профиль] [ЛС]
Кто просматривает тему:

Форум Тема Автор Размер
Документальные HD 20 000 дней на Земле / 20,000 Days on Earth (Ян Форсайт & Джейн Поллард / Iain Forsyth & Jane Pollard) [2014, Великобритания, Документальный, музыкальный, BDRip 1080p] + Sub Rus + Original Eng TorrentFilm 7.45 GB
Документальные HD 20 000 дней на Земле / 20,000 Days on Earth (Ян Форсайт & Джейн Поллард / Iain Forsyth & Jane Pollard) [2014, Документальный, драма, музыка, BDRip 1080p] TorrentFilm 7.25 GB
Фильмы 2011 года Двойной форсаж / 2 Fast 2 Furious (Джон Синглтон) [2003, боевик, триллер, криминал, BDRip] [DUB] BOSS 1.46 GB
Мировая классика Джон Голсуорси - Сага о Форсайтах. В петле [Инна Сытник, 2006] Magnat 658 MB
Мировая классика Джон Голсуорси - Сага о Форсайтах. Сдается внаем [Инна Сытник, 2006] Magnat 553 MB
Фильмы 2014 года Скандинавский форсаж / Børning (2014) BDRip-AVC от HELLYWOOD | iTunes Russian Mafia 1.46 GB
R.G.TorrentFilm Video Скандинавский форсаж / Børning (Хальвард Брейн / Hallvard Bræin) [2014 г., Боевик, комедия, HDRip] Dub Один 777 741 MB
Фильмы 2014 года Скандинавский форсаж / Børning (Хальвард Брейн) [2014, боевик, комедия] HDRip | iTunes BOSS 1.37 GB
Показать сообщения:    

Текущее время: Сегодня 09:59

Часовой пояс: GMT



Вы не можете начинать темы
Вы не можете отвечать на сообщения
Вы не можете редактировать свои сообщения
Вы не можете удалять свои сообщения
Вы не можете голосовать в опросах
Вы не можете прикреплять файлы к сообщениям
Вы не можете скачивать файлы