Форсаж 7 / Furious Seven (2015) BDRip 1080p | Theatrical cut | D, А | Лицензия

 
Автор Сообщение

sergej644 ®

Пол:

Стаж: 4 года 11 месяцев

Сообщений: 6046

Откуда: Soviet Union



Награды: Нет

Торрент-статистика

Создавать темы 03-Авг-2015 19:35

[Цитировать]

Информация о фильме
Название: Форсаж 7
Оригинальное название: Furious 7
Год выпуска: 2015
Жанр: Боевик, триллер, криминал
Выпущено: США, Dentsu, Fast 7 Productions, One Race Films, Original Film, Universal Pictures
Режиссер: Джеймс Ван
В ролях: Вин Дизель, Дуэйн Джонсон, Джейсон Стэйтем, Пол Уокер, Тайриз Гибсон, Лудакрис, Тони Джаа, Лукас Блэк, Мишель Родригес, Курт Расселл, Эльза Патаки, Джордана Брюстер, Натали Эммануэль, Галь Гадот, Джон Бразертон, Джимон Хонсу, Ноэль Гульеми, Али Фазал, Санг Кенг, Ронда Роуси, Гентри Уайт, Игги Азалия, Джон Ли Броди, Анна Колвелл, Виктор Эрнандез, Стив Култер, Роберт Пралго, Хорхе Феррагут, Бенжамин Бланкеншип
О фильме: Они покорили Токио и Рио, Лос-Анджелес и Лондон. Но мир больше не играет по их правилам. Зной арабских пустынь, неприлично высокие небоскребы, миллионы долларов на колесах и очень, очень знаменитый злодей. Скорость не знает границ.

Файл
Качество: BDRip (1080p)
Видео: MPEG-4 AVC, 12000 Кбит/с, 1920x800
Аудио: Русский (AC3, 6 ch, 448 Кбит/с[BD_CEE]), (AC3, 6 ch, 640 Кбит/с[Matveev]), (DTS, 6 ch, 1510 Кбит/с [Matveev]), английский (DTS, 6 ch, 1510 Кбит/с)
Продолжительность: 02:17:19
Перевод: Дублированный [лицензия], авторский одноголосый закадровый (А. Матвеев)
Субтитры: Русские, английские, украинские

MI

бщее
Уникальный идентификатор : 245497497591719552629841214504665060422 (0xB8B11922E00A0415BB98AAB7EB2B9446)
Полное имя : C:Furious Seven 2015 Theatrical Cut BDRip.1080p_by_bog3417.mkv
Формат : Matroska
Версия формата : Version 2
Размер файла : 15,4 Гбайт
Продолжительность : 2 ч. 17 м.
Общий поток : 16,1 Мбит/сек
Название фильма : by-bog3417
Дата кодирования : UTC 2015-08-03 13:57:10
Программа кодирования : mkvmerge v7.9.0 ('Birds') 64bit
Библиотека кодирования : libebml v1.3.1 + libmatroska v1.4.2
Видео
Идентификатор : 1
Формат : AVC
Формат/Информация : Advanced Video Codec
Профиль формата : High@L4.1
Параметр CABAC формата : Да
Параметр ReFrames формата : 5 кадров
Идентификатор кодека : V_MPEG4/ISO/AVC
Продолжительность : 2 ч. 17 м.
Битрейт : 12,0 Мбит/сек
Ширина : 1920 пикселей
Высота : 800 пикселей
Соотношение сторон : 2,40:1
Режим частоты кадров : Постоянный
Частота кадров : 23,976 кадра/сек
Цветовое пространство : YUV
Субдискретизация насыщенности : 4:2:0
Битовая глубина : 8 бит
Тип развёртки : Прогрессивная
Бит/(Пиксели*Кадры) : 0.326
Размер потока : 11,2 Гбайт (73%)
Заголовок : by-bog3417
Библиотека кодирования : x264 core 146 r2538 121396c
Настройки программы : cabac=1 / ref=5 / deblock=1:-3:-3 / analyse=0x3:0x33 / me=umh / subme=11 / psy=1 / psy_rd=1.00:0.00 / mixed_ref=1 / me_range=48 / chroma_me=1 / trellis=2 / 8x8dct=1 / cqm=0 / deadzone=21,11 / fast_pskip=0 / chroma_qp_offset=-2 / threads=12 / lookahead_threads=2 / sliced_threads=0 / nr=0 / decimate=0 / interlaced=0 / bluray_compat=0 / constrained_intra=0 / bframes=9 / b_pyramid=2 / b_adapt=2 / b_bias=0 / direct=3 / weightb=1 / open_gop=0 / weightp=2 / keyint=240 / keyint_min=23 / scenecut=40 / intra_refresh=0 / rc=2pass / mbtree=0 / bitrate=12000 / ratetol=1.0 / qcomp=0.60 / qpmin=0 / qpmax=69 / qpstep=4 / cplxblur=20.0 / qblur=0.5 / ip_ratio=1.40 / pb_ratio=1.30 / aq=3:0.90
Язык : English
Default : Да
Forced : Нет
Аудио #1
Идентификатор : 2
Формат : AC-3
Формат/Информация : Audio Coding 3
Расширение режима : CM (complete main)
Параметр Endianness формата : Big
Идентификатор кодека : A_AC3
Продолжительность : 2 ч. 17 м.
Вид битрейта : Постоянный
Битрейт : 448 Кбит/сек
Каналы : 6 каналов
Расположение каналов : Front: L C R, Side: L R, LFE
Частота : 48,0 КГц
Метод сжатия : С потерями
Размер потока : 440 Мбайт (3%)
Язык : Russian
Default : Да
Forced : Нет
Аудио #2
Идентификатор : 3
Формат : AC-3
Формат/Информация : Audio Coding 3
Расширение режима : CM (complete main)
Параметр Endianness формата : Big
Идентификатор кодека : A_AC3
Продолжительность : 2 ч. 17 м.
Вид битрейта : Постоянный
Битрейт : 640 Кбит/сек
Каналы : 6 каналов
Расположение каналов : Front: L C R, Side: L R, LFE
Частота : 48,0 КГц
Метод сжатия : С потерями
Размер потока : 629 Мбайт (4%)
Заголовок : matveev
Язык : Russian
Default : Нет
Forced : Нет
Аудио #3
Идентификатор : 4
Формат : DTS
Формат/Информация : Digital Theater Systems
Режим : 16
Параметр Endianness формата : Big
Идентификатор кодека : A_DTS
Продолжительность : 2 ч. 17 м.
Вид битрейта : Постоянный
Битрейт : 1509 Кбит/сек
Каналы : 6 каналов
Расположение каналов : Front: L C R, Side: L R, LFE
Частота : 48,0 КГц
Битовая глубина : 24 бит
Метод сжатия : С потерями
Размер потока : 1,45 Гбайт (9%)
Заголовок : matveev
Язык : Russian
Default : Нет
Forced : Нет
Аудио #4
Идентификатор : 5
Формат : DTS
Формат/Информация : Digital Theater Systems
Режим : 16
Параметр Endianness формата : Big
Идентификатор кодека : A_DTS
Продолжительность : 2 ч. 17 м.
Вид битрейта : Постоянный
Битрейт : 1509 Кбит/сек
Каналы : 6 каналов
Расположение каналов : Front: L C R, Side: L R, LFE
Частота : 48,0 КГц
Битовая глубина : 24 бит
Метод сжатия : С потерями
Размер потока : 1,45 Гбайт (9%)
Язык : English
Default : Нет
Forced : Нет
Текст #1
Идентификатор : 6
Формат : UTF-8
Идентификатор кодека : S_TEXT/UTF8
Идентификатор кодека/Информация : UTF-8 Plain Text
Заголовок : iTunes
Язык : Russian
Default : Нет
Forced : Нет
Текст #2
Идентификатор : 7
Формат : UTF-8
Идентификатор кодека : S_TEXT/UTF8
Идентификатор кодека/Информация : UTF-8 Plain Text
Заголовок : iTunes
Язык : Ukrainian
Default : Нет
Forced : Нет
Текст #3
Идентификатор : 8
Формат : UTF-8
Идентификатор кодека : S_TEXT/UTF8
Идентификатор кодека/Информация : UTF-8 Plain Text
Заголовок : SDH, iTunes
Язык : English
Default : Нет
Forced : Нет
Меню
00:00:00.000 : en:00:00:00.000
00:03:59.000 : en:00:03:59.000
00:09:59.000 : en:00:09:59.000
00:15:08.000 : en:00:15:08.000
00:24:23.000 : en:00:24:23.000
00:31:54.000 : en:00:31:54.000
00:39:55.000 : en:00:39:55.000
00:44:51.000 : en:00:44:51.000
00:50:21.000 : en:00:50:21.000
01:00:41.000 : en:01:00:41.000
01:04:27.000 : en:01:04:27.000
01:12:25.000 : en:01:12:25.000
01:20:36.000 : en:01:20:36.000
01:30:48.000 : en:01:30:48.000
01:35:55.000 : en:01:35:55.000
01:43:07.000 : en:01:43:07.000
01:51:24.000 : en:01:51:24.000
01:55:58.000 : en:01:55:58.000
02:03:46.000 : en:02:03:46.000
02:08:58.000 : en:02:08:58.000

Скриншоты

Релиз от:
[Профиль] [ЛС]
Кто просматривает тему:

Форум Тема Автор Размер
Документальные HD 20 000 дней на Земле / 20,000 Days on Earth (Ян Форсайт & Джейн Поллард / Iain Forsyth & Jane Pollard) [2014, Великобритания, Документальный, музыкальный, BDRip 1080p] + Sub Rus + Original Eng TorrentFilm 7.45 GB
Документальные HD 20 000 дней на Земле / 20,000 Days on Earth (Ян Форсайт & Джейн Поллард / Iain Forsyth & Jane Pollard) [2014, Документальный, драма, музыка, BDRip 1080p] TorrentFilm 7.25 GB
Фильмы 2011 года Двойной форсаж / 2 Fast 2 Furious (Джон Синглтон) [2003, боевик, триллер, криминал, BDRip] [DUB] BOSS 1.46 GB
Мировая классика Джон Голсуорси - Сага о Форсайтах. В петле [Инна Сытник, 2006] Magnat 658 MB
Мировая классика Джон Голсуорси - Сага о Форсайтах. Сдается внаем [Инна Сытник, 2006] Magnat 553 MB
Фильмы 2014 года Скандинавский форсаж / Børning (2014) BDRip-AVC от HELLYWOOD | iTunes Russian Mafia 1.46 GB
R.G.TorrentFilm Video Скандинавский форсаж / Børning (Хальвард Брейн / Hallvard Bræin) [2014 г., Боевик, комедия, HDRip] Dub Один 777 741 MB
Фильмы 2014 года Скандинавский форсаж / Børning (Хальвард Брейн) [2014, боевик, комедия] HDRip | iTunes BOSS 1.37 GB
Показать сообщения:    

Текущее время: Сегодня 08:18

Часовой пояс: GMT



Вы не можете начинать темы
Вы не можете отвечать на сообщения
Вы не можете редактировать свои сообщения
Вы не можете удалять свои сообщения
Вы не можете голосовать в опросах
Вы не можете прикреплять файлы к сообщениям
Вы не можете скачивать файлы