Форсаж 4 / Fast & Furious (Джастин Лин / Justin Lin) [2009, США, боевик, криминальная драма, триллер, BDRip-AVC] Dub + Subs (Rus, Eng) + Original (Eng)

 
Автор Сообщение

TorrentFilm ®

Пол:

Стаж: 2 года

Сообщений: 7741



Награды: Нет

Торрент-статистика

Создавать темы 12-Май-2015 00:04

[Цитировать]

Форсаж 4 / Fast & Furious
«Новые тачки. Старая команда.»
- Страна: США
Жанр: боевик, криминальная драма, триллер
Год выпуска: 2009
Продолжительность: 01:46:52
Перевод: Профессиональный (дублированный) BD CEE
Cубтитры: Русские (Full, Forced), English (Full)
Оригинальная аудиодорожка: English
Навигация по главам: присутствует - 20 глав | подписаны-Режиссер:
Джастин Лин / Justin Lin-В ролях:
Вин Дизель (Dominic Toretto), Пол Уокер (Brian O'Conner), Джордана Брюстер (Mia Toretto), Мишель Родригес (Letty), Джон Ортиз (Campos), Лас Алонсо (Fenix Rise), Гал Гадот (Gisele Harabo), Джек Конли (Penning), Ши Уигхэм (Agent Ben Stasiak), Лиза Лапира (Agent Sophie Trinh).-Описание:
Когда кривая дорожка заставляет скрывающегося от правосудия Дома Торетто вернуться в Лос-Анджелес, вражда с агентом Брайаном О’Коннером вспыхивает с новой силой. Но у парочки обнаруживается общий противник, и Дому с Брайаном приходится заключить перемирие в надежде одержать над ним победу. Грабя конвои, роя подкопы и пересекая границы, они приходят к идеальной форме отмщения — педали газа, вдавленной до упора.- -Download sample-Качество видео: BDRip-AVC | thx: ☞ Trigivian
Формат видео: MKV-Видео: 1 152x480 at 23.976 fps, x264 @ L4.1, crf, ~4500 kbps avg
Аудио#1: 48.0 kHz, AC3 Dolby Digital, 3/2 (L,C,R,l,r) + LFE ch, ~448.00 kbps avg | Профессиональный (дублированный) BD CEE
Аудио#2: 48.0 kHz, AC3 Dolby Digital, 3/2 (L,C,R,l,r) + LFE ch, ~448.00 kbps avg | English
Формат субтитров: softsub (SRT*)
-

MediaInfo

Общее
Уникальный идентификатор : 227974966190258463277322247823211050156 (0xAB8261A3252DC502BC79B5CBCCB734AC)
Полное имя : D:\Фильмы\Fast & Furious.2009.BDRip-AVC.x264.mkv
Формат : Matroska
Версия формата : Version 4 / Version 2
Размер файла : 4,08 Гбайт
Продолжительность : 1 ч. 46 м.
Общий поток : 5462 Кбит/сек
Дата кодирования : UTC 2015-05-10 13:57:07
Программа кодирования : mkvmerge v6.1.0 ('Old Devil') built on Mar 4 2013 09:10:42
Библиотека кодирования : libebml v1.3.0 + libmatroska v1.4.0
Attachment : Yes
Видео
Идентификатор : 1
Формат : AVC
Формат/Информация : Advanced Video Codec
Профиль формата : High@L4.1
Параметр CABAC формата : Да
Параметр ReFrames формата : 14 кадров
Идентификатор кодека : V_MPEG4/ISO/AVC
Продолжительность : 1 ч. 46 м.
Битрейт : 4457 Кбит/сек
Ширина : 1152 пикселя
Высота : 480 пикселей
Соотношение сторон : 2,40:1
Режим частоты кадров : Постоянный
Частота кадров : 23,976 кадра/сек
Цветовое пространство : YUV
Субдискретизация насыщенности : 4:2:0
Битовая глубина : 8 бит
Тип развёртки : Прогрессивная
Бит/(Пиксели*Кадры) : 0.336
Размер потока : 3,33 Гбайт (82%)
Заголовок : Форсаж 4 / Fast & Furious / 2009
Библиотека кодирования : x264 core 146 r2538kMod 121396c
Настройки программы : cabac=1 / ref=14 / deblock=1:-2:-2 / analyse=0x3:0x113 / me=umh / subme=11 / psy=1 / fade_compensate=0.00 / psy_rd=1.00:0.00 / mixed_ref=1 / me_range=48 / chroma_me=1 / trellis=2 / 8x8dct=1 / cqm=0 / deadzone=21,11 / fast_pskip=0 / chroma_qp_offset=-2 / threads=6 / lookahead_threads=1 / sliced_threads=0 / nr=0 / decimate=1 / interlaced=0 / bluray_compat=0 / constrained_intra=0 / fgo=0 / bframes=16 / b_pyramid=2 / b_adapt=2 / b_bias=0 / direct=3 / weightb=1 / open_gop=0 / weightp=2 / keyint=230 / keyint_min=23 / scenecut=40 / intra_refresh=0 / rc_lookahead=80 / rc=crf / mbtree=0 / crf=17.9550 / qcomp=1.00 / qpmin=0 / qpmax=69 / qpstep=4 / vbv_maxrate=50000 / vbv_bufsize=62500 / crf_max=0.0 / nal_hrd=none / filler=0 / ip_ratio=1.40 / pb_ratio=1.30 / aq=2:0.90
Язык : English
Default : Нет
Forced : Нет
Аудио #1
Идентификатор : 2
Формат : AC-3
Формат/Информация : Audio Coding 3
Расширение режима : CM (complete main)
Параметр Endianness формата : Big
Идентификатор кодека : A_AC3
Продолжительность : 1 ч. 46 м.
Вид битрейта : Постоянный
Битрейт : 448 Кбит/сек
Каналы : 6 каналов
Расположение каналов : Front: L C R, Side: L R, LFE
Частота : 48,0 КГц
Битовая глубина : 16 бит
Метод сжатия : С потерями
Размер потока : 342 Мбайт (8%)
Заголовок : Dub @ 448 kbps
Язык : Russian
Default : Нет
Forced : Нет
Аудио #2
Идентификатор : 3
Формат : AC-3
Формат/Информация : Audio Coding 3
Расширение режима : CM (complete main)
Параметр Endianness формата : Big
Идентификатор кодека : A_AC3
Продолжительность : 1 ч. 46 м.
Вид битрейта : Постоянный
Битрейт : 448 Кбит/сек
Каналы : 6 каналов
Расположение каналов : Front: L C R, Side: L R, LFE
Частота : 48,0 КГц
Битовая глубина : 16 бит
Метод сжатия : С потерями
Размер потока : 342 Мбайт (8%)
Заголовок : Original @ 448 kbps
Язык : English
Default : Нет
Forced : Нет
Текст #1
Идентификатор : 4
Формат : UTF-8
Идентификатор кодека : S_TEXT/UTF8
Идентификатор кодека/Информация : UTF-8 Plain Text
Заголовок : Forced
Язык : Russian
Default : Нет
Forced : Нет
Текст #2
Идентификатор : 5
Формат : UTF-8
Идентификатор кодека : S_TEXT/UTF8
Идентификатор кодека/Информация : UTF-8 Plain Text
Заголовок : Full
Язык : Russian
Default : Нет
Forced : Нет
Текст #3
Идентификатор : 6
Формат : UTF-8
Идентификатор кодека : S_TEXT/UTF8
Идентификатор кодека/Информация : UTF-8 Plain Text
Заголовок : Full
Язык : English
Default : Нет
Forced : Нет
Меню
00:00:00.000 : en:Game Time
00:07:26.529 : en:Ride Or Die
00:11:46.955 : en:Foot Pursuit
00:16:46.755 : en:Coming Home
00:24:24.087 : en:Back On The Scene
00:29:05.452 : en:Tuned-Up
00:34:05.293 : en:A Real Driver
00:37:30.790 : en:Muscle Beats Import
00:46:07.347 : en:Boss Os Bosses
00:53:37.380 : en:Along For The Ride
00:58:15.158 : en:High-Performance
01:04:49.218 : en:Spotted Together
01:07:29.879 : en:Food, Family, Friendship
01:12:01.859 : en:Just Business
01:14:46.523 : en:Primary Target
01:20:36.164 : en:Juisdiction Ends
01:25:03.264 : en:Ain't Forgiven
01:29:09.385 : en:Run For The Border
01:35:54.999 : en:Steet Pardon
01:39:24.957 : en:End Titles

Скриншот c названием фильма

log x264

x264 [info]: frame I:1252 Avg QP:14.80 size: 80788
x264 [info]: frame P:34674 Avg QP:16.20 size: 41954
x264 [info]: frame B:117817 Avg QP:18.93 size: 17846
x264 [info]: consecutive B-frames: 3.1% 4.3% 7.6% 19.6% 14.7% 34.9% 6.5% 3.0% 1.8% 2.1% 0.5% 0.9% 0.4% 0.5% 0.1% 0.0% 0.0%
x264 [info]: Weighted P-Frames: Y:6.1% UV:4.0%
x264 [info]: ref P L0: 44.1% 7.3% 18.0% 7.7% 5.8% 4.1% 3.5% 1.9% 1.7% 1.4% 1.3% 1.1% 1.0% 0.9% 0.2% 0.0%
x264 [info]: ref B L0: 70.5% 12.4% 6.2% 3.2% 2.1% 1.7% 1.3% 0.7% 0.6% 0.5% 0.4% 0.3% 0.1%
x264 [info]: ref B L1: 91.8% 8.2%
x264 [info]: kb/s:4564.13
encoded 153743 frames, 5.59 fps, 4564.13 kb/s, duration 7:38:02.88

Source vs Encode

Source

Encode

Скриншоты

[Профиль] [ЛС]

Создавать темы 06-Авг-2015 22:31 (спустя 2 месяца 25 дней)

Топик был перенесен из форума Фильмы до 2014 года в форум Фильмы до 2012 года
sergej644
 

Создавать темы 12-Июн-2016 08:49 (спустя 1 год 1 месяц)

Топик был перенесен из форума Фильмы 2011 года в форум Фильмы 2009 года
Russian Mafia
 
Кто просматривает тему:

Форум Тема Автор Размер
Документальные HD 20 000 дней на Земле / 20,000 Days on Earth (Ян Форсайт & Джейн Поллард / Iain Forsyth & Jane Pollard) [2014, Великобритания, Документальный, музыкальный, BDRip 1080p] + Sub Rus + Original Eng TorrentFilm 7.45 GB
Документальные HD 20 000 дней на Земле / 20,000 Days on Earth (Ян Форсайт & Джейн Поллард / Iain Forsyth & Jane Pollard) [2014, Документальный, драма, музыка, BDRip 1080p] TorrentFilm 7.25 GB
Фильмы 2011 года Двойной форсаж / 2 Fast 2 Furious (Джон Синглтон) [2003, боевик, триллер, криминал, BDRip] [DUB] BOSS 1.46 GB
Мировая классика Джон Голсуорси - Сага о Форсайтах. В петле [Инна Сытник, 2006] Magnat 658 MB
Мировая классика Джон Голсуорси - Сага о Форсайтах. Сдается внаем [Инна Сытник, 2006] Magnat 553 MB
Фильмы 2014 года Скандинавский форсаж / Børning (2014) BDRip-AVC от HELLYWOOD | iTunes Russian Mafia 1.46 GB
R.G.TorrentFilm Video Скандинавский форсаж / Børning (Хальвард Брейн / Hallvard Bræin) [2014 г., Боевик, комедия, HDRip] Dub Один 777 741 MB
Фильмы 2014 года Скандинавский форсаж / Børning (Хальвард Брейн) [2014, боевик, комедия] HDRip | iTunes BOSS 1.37 GB
Показать сообщения:    

Текущее время: Сегодня 13:02

Часовой пояс: GMT



Вы не можете начинать темы
Вы не можете отвечать на сообщения
Вы не можете редактировать свои сообщения
Вы не можете удалять свои сообщения
Вы не можете голосовать в опросах
Вы не можете прикреплять файлы к сообщениям
Вы не можете скачивать файлы