Форсаж: Хоббс и Шоу / Fast & Furious Presents: Hobbs & Shaw (2019) WEBRip 1080p | Трейлер

 
Автор Сообщение

BOSS ®

Пол:

Стаж: 4 года 4 месяца

Сообщений: 13429

Откуда: ODESSA



Награды: 22 (Подробнее)

Mega Releaser 1 (Количество: 1) За внесенный вклад в развитие сайта (Количество: 1) Top Releaser 2 (Количество: 1)
Торрент-статистика

Создавать темы 03-Фев-2019 19:38

[Цитировать]

Год выпуска: 2019
Производство: США / Universal Pictures
Жанр: Боевик, приключения
Режиссер: Дэвид Литч
Продюсеры: Хирам Гарсиа, Крис Морган, Нил Х. Мориц
Актеры: Эйса Гонсалес, Дуэйн Джонсон, Ванесса Кирби, Идрис Эльба, Джейсон Стэйтем, Эдди Марсан, Джо Аноаи, Стефани Вогт, Sonia Goswami, Виктория Фэйт
Описание:
Превосходный спецагент, боец и стрелок Люк Хоббс вынужден объединиться со своим старым врагом, опаснейшим преступником Деккардом Шоу, чтобы противостоять общему противнику.
Перевод: Дублированный
Субтитры: Нет-Дата мировой премьеры: 1 августа 2019
Дата российской премьеры: 1 августа 2019, «UPI»
-Продолжительность: 00:02:12
Качество видео:WEBRip 1080p-Видео: H264, 1920x1080 (16:9), 46,4 Мбит/сек
Аудио 1: MP3 2.0, 128 Кбит/сек [Русский - дублированный]
Аудио 2: PCM 5.1, 4608 Кбит/сек [Английский - оригинал]

MediaInfo:

Общее
Уникальный идентификатор : 102566745547864772342915946301098968370 (0x4D29A2FBD0BD4E761578E057286E4532)
Полное имя : V:TorrentsFast & Furious Presents. Hobbs & Shaw (2019) HDRip [1080p] Trailer.mkv
Формат : Matroska
Версия формата : Version 4 / Version 2
Размер файла : 1,09 Гбайт
Продолжительность : 3 м. 3 с.
Общий поток : 51,1 Мбит/сек
Дата кодирования : UTC 2019-02-03 13:41:13
Программа кодирования : mkvmerge v30.1.0 ('Forever And More') 64-bit
Библиотека кодирования : libebml v1.3.6 + libmatroska v1.4.9
Видео
Идентификатор : 1
Формат : AVC
Формат/Информация : Advanced Video Codec
Профиль формата : Main@L4.1
Настройки формата : CABAC / 4 Ref Frames
Параметр CABAC формата : Да
Параметр RefFrames формата : 4 кадра
Идентификатор кодека : V_MPEG4/ISO/AVC
Продолжительность : 3 м. 3 с.
Битрейт : 46,4 Мбит/сек
Номинальный битрейт : 50,0 Мбит/сек
Ширина : 1920 пикселей
Высота : 1080 пикселей
Соотношение сторон : 16:9
Режим частоты кадров : Постоянный
Частота кадров : 23,976 (24000/1001) кадра/сек
Цветовое пространство : YUV
Субдискретизация насыщенности : 4:2:0
Битовая глубина : 8 бит
Тип развёртки : Прогрессивная
Бит/(Пиксели*Кадры) : 0.934
Размер потока : 1017 Мбайт (91%)
Заголовок : Fast & Furious Present: Hobbs and Shaw
Библиотека кодирования : x264 core 157 r2935 545de2f
Настройки программы : cabac=1 / ref=2 / deblock=1:0:0 / analyse=0x1:0x111 / me=hex / subme=6 / psy=1 / psy_rd=1.00:0.00 / mixed_ref=1 / me_range=16 / chroma_me=1 / trellis=1 / 8x8dct=0 / cqm=0 / deadzone=21,11 / fast_pskip=1 / chroma_qp_offset=-2 / threads=12 / lookahead_threads=2 / sliced_threads=0 / nr=0 / decimate=1 / interlaced=0 / bluray_compat=0 / constrained_intra=0 / bframes=3 / b_pyramid=2 / b_adapt=1 / b_bias=0 / direct=1 / weightb=1 / open_gop=0 / weightp=1 / keyint=240 / keyint_min=24 / scenecut=40 / intra_refresh=0 / rc_lookahead=30 / rc=cbr / mbtree=1 / bitrate=50000 / ratetol=1.0 / qcomp=0.60 / qpmin=0 / qpmax=69 / qpstep=4 / vbv_maxrate=50000 / vbv_bufsize=62500 / nal_hrd=none / filler=0 / ip_ratio=1.40 / aq=1:1.00
Язык : English
Default : Да
Forced : Нет
Цветовой диапазон : Limited
Основные цвета : BT.709
Характеристики трансфера : BT.709
Коэффициенты матрицы : BT.709
Аудио #1
Идентификатор : 2
Формат : MPEG Audio
Версия формата : Version 1
Профиль формата : Layer 3
Настройки формата : Joint stereo
Режим : Joint stereo
Идентификатор кодека : A_MPEG/L3
Идентификатор кодека/Подсказка : MP3
Продолжительность : 3 м. 3 с.
Вид битрейта : Постоянный
Битрейт : 128 Кбит/сек
Каналы : 2 канала
Частота : 48,0 КГц
Частота кадров : 41,667 кадра/сек (1152 SPF)
Метод сжатия : С потерями
Размер потока : 2,81 Мбайт (0%)
Заголовок : Dub
Язык : Russian
Default : Да
Forced : Нет
Аудио #2
Идентификатор : 3
Формат : PCM
Идентификатор кодека : A_PCM/INT/LIT
Продолжительность : 3 м. 3 с.
Вид битрейта : Постоянный
Битрейт : 4608 Кбит/сек
Каналы : 6 каналов
Частота : 48,0 КГц
Частота кадров : 32,004 кадра/сек (1500 SPF)
Битовая глубина : 16 бит
Размер потока : 101 Мбайт (9%)
Заголовок : 5.1 Lossless PCM Upmix
Язык : English
Default : Нет
Forced : Нет

Скриншоты:

[Профиль] [ЛС]
Кто просматривает тему:

Форум Тема Автор Размер
Документальные HD 20 000 дней на Земле / 20,000 Days on Earth (Ян Форсайт & Джейн Поллард / Iain Forsyth & Jane Pollard) [2014, Великобритания, Документальный, музыкальный, BDRip 1080p] + Sub Rus + Original Eng TorrentFilm 7.45 GB
Документальные HD 20 000 дней на Земле / 20,000 Days on Earth (Ян Форсайт & Джейн Поллард / Iain Forsyth & Jane Pollard) [2014, Документальный, драма, музыка, BDRip 1080p] TorrentFilm 7.25 GB
Ultra HD (UHD: 2K,4K, 8K) — видео сверхвысокой чёткости Двойной форсаж / 2 Fast 2 Furious (2003) UHD Blu-Ray EUR 2160p | 4K | HDR | D BOSS 57.12 GB
Фильмы 2011 года Двойной форсаж / 2 Fast 2 Furious (Джон Синглтон) [2003, боевик, триллер, криминал, BDRip] [DUB] BOSS 1.46 GB
Мировая классика Джон Голсуорси - Сага о Форсайтах. В петле [Инна Сытник, 2006] Magnat 658 MB
Мировая классика Джон Голсуорси - Сага о Форсайтах. Сдается внаем [Инна Сытник, 2006] Magnat 553 MB
Фильмы 2014 года Скандинавский форсаж / Børning (2014) BDRip-AVC от HELLYWOOD | iTunes Russian Mafia 1.46 GB
R.G.TorrentFilm Video Скандинавский форсаж / Børning (Хальвард Брейн / Hallvard Bræin) [2014 г., Боевик, комедия, HDRip] Dub Один 777 741 MB
Показать сообщения:    

Текущее время: Сегодня 07:10

Часовой пояс: GMT



Вы не можете начинать темы
Вы не можете отвечать на сообщения
Вы не можете редактировать свои сообщения
Вы не можете удалять свои сообщения
Вы не можете голосовать в опросах
Вы не можете прикреплять файлы к сообщениям
Вы не можете скачивать файлы