Форрест Гамп / Forrest Gump (1994) BDRip 1080p | 60 fps | P

 
Автор Сообщение

sergej644 ®

Пол:

Стаж: 4 года 11 месяцев

Сообщений: 6043

Откуда: Soviet Union



Награды: Нет

Торрент-статистика

Создавать темы 15-Ноя-2014 15:01

[Цитировать]

-Название: Форрест Гамп
Оригинальное название: Forrest Gump
Год выпуска: 1994
Страна: США
Жанр: драма, мелодрама
Продолжительность: 02:22:09
Перевод: Профессиональный многоголосый
Субтитры: русские (Полные), английские (Полные)-Режиссер: Роберт Земекис / Robert Zemeckis-В ролях: Том Хэнкс (Forrest Gump), Робин Райт (Jenny Curran), Гэри Синиз (Lieutenant Dan Taylor), Майкелти Уильямсон (Bubba Blue), Салли Филд (Mrs. Gump), Ребекка Уильямс (Nurse at Park Bench), Майкл Коннер Хэмпфри (Young Forrest), Хэйли Джоэл Осмент (Forrest Junior), Харольд Дж. Хертэм (Doctor), Джордж Келли (Barber), Боб Пенни (Crony), Джон Рэндолл (Crony)-Описание:
От лица главного героя Форреста Гампа, слабоумного безобидного человека с благородным и открытым сердцем, рассказывается история его необыкновенной жизни.
Фантастическим образом превращается он в известного футболиста, героя войны, преуспевающего бизнесмена. Он становится миллиардером, но остается таким же бесхитростным, глупым и добрым. Форреста ждет постоянный успех во всем, а он любит девочку, с которой дружил в детстве, но взаимность приходит слишком поздно.-Рейтинг

imdb.com: 8.80 (861 961)
MPAA: PG-13 - Детям до 13 лет просмотр не желателен-Автор рипа:Tiberiumsun69-Качество: BDRip 1080p
Формат: MKV
Видео кодек: AVC
Аудио кодек:AC3
Видео: 1920x816, 17356 kbps, 59,940 fps
Аудио №1: Русский / AC3 / 5.1 / 48 kHz / 448 kbps / 16 bit |Многоголосый закадровый, Студия Киномания|
Аудио №2: Русский / AC3 / 5.1 / 48 kHz / 640 kbps / 16 bit |Многоголосый закадровый, Студия Позитив|
Аудио №3: Русский / AC3 / 5.1 / 48 kHz / 640 kbps / 16 bit |Многоголосый закадровый, Студия Тайкун|
Аудио №4: Английский / AC3 / 5.1 / 48 kHz / 640 kbps / 16 bit
Навигация по главам: есть
-

MI

General
Unique ID : 179691121777332872006107232251603798330 (0x872F404FC462E56488CD8E4D9AA7493A)
Название : A:1080p 60fpsФоррест Гамп 1080p 60fps.mkv
Формат : Matroska
Формат version : Version 4 / Version 2
Размер файла : 20.0 GiB
Длительность : 2h 22mn
Общий Битрейт : 20.1 Mbps
Encoded date : UTC 2014-08-05 12:22:34
Создано приложением : mkvmerge v6.9.1 ('Blue Panther') 64bit built on Apr 18 2014 18:23:38
Writing library : libebml v1.3.0 + libmatroska v1.4.1
Attachment : Yes / Yes / Yes
Video
ID : 1
Формат : AVC
Формат/Info : Advanced Video Кодек
Формат profile : High@L4.1
Формат настройки, CABAC : Yes
Формат настройки, ReFrames : 4 frames
Кодек ID : V_MPEG4/ISO/AVC
Длительность : 2h 22mn
Битрейт : 17.4 Mbps
Width : 1 920 пикселей
Высота : 816 пикселей
Соотношение кадра : 2.35:1
Частота кадров : 59.940 fps
Цветопередача : YUV
Chroma subsampling : 4:2:0
Разрядность : 8 bits
Тип сканирования : Progressive
Bits/(Pixel*Frame) : 0.185
Размер потока : 17.2 GiB (86%)
Writing library : x264 core 130 r2273 b3065e6
Encoding настройки : cabac=1 / ref=4 / deblock=1:-1:-1 / analyse=0x3:0 / me=umh / subme=9 / psy=1 / psy_rd=1.00:0.10 / mixed_ref=1 / me_range=42 / chroma_me=0 / trellis=2 / 8x8dct=1 / cqm=0 / deadzone=21,11 / fast_pskip=0 / chroma_qp_offset=-3 / threads=12 / lookahead_threads=1 / sliced_threads=0 / nr=0 / decimate=0 / interlaced=0 / bluray_compat=0 / constrained_intra=0 / bframes=5 / b_pyramid=2 / b_adapt=2 / b_bias=0 / direct=1 / weightb=1 / open_gop=0 / weightp=2 / keyint=594 / keyint_min=59 / scenecut=40 / intra_refresh=0 / rc=crf / mbtree=0 / crf=15.0 / qcomp=0.60 / qpmin=0 / qpmax=69 / qpstep=4 / ip_ratio=1.40 / pb_ratio=1.30 / aq=0
Язык : English
Default : Yes
Forced : No
Audio #1
ID : 2
Формат : AC-3
Формат/Info : Audio Coding 3
Расширение режима : CM (complete main)
Кодек ID : A_AC3
Длительность : 2h 22mn
Битрейт mode : Constant
Битрейт : 448 Kbps
Каналы(s) : 6 каналов
Каналы positions : Front: L C R, Side: L R, LFE
Частота : 48.0 KHz
Разрядность : 16 bits
Режим сжатия : Lossy
Размер потока : 456 MiB (2%)
Title : MVO Киномания
Язык : Russian
Default : Yes
Forced : No
Audio #2
ID : 4
Формат : AC-3
Формат/Info : Audio Coding 3
Расширение режима : CM (complete main)
Кодек ID : A_AC3
Длительность : 2h 22mn
Битрейт mode : Constant
Битрейт : 640 Kbps
Каналы(s) : 6 каналов
Каналы positions : Front: L C R, Side: L R, LFE
Частота : 48.0 KHz
Разрядность : 16 bits
Режим сжатия : Lossy
Размер потока : 651 MiB (3%)
Title : MVO Позитив
Язык : Russian
Default : No
Forced : No
Audio #3
ID : 5
Формат : AC-3
Формат/Info : Audio Coding 3
Расширение режима : CM (complete main)
Кодек ID : A_AC3
Длительность : 2h 22mn
Битрейт mode : Constant
Битрейт : 640 Kbps
Каналы(s) : 6 каналов
Каналы positions : Front: L C R, Side: L R, LFE
Частота : 48.0 KHz
Разрядность : 16 bits
Режим сжатия : Lossy
Размер потока : 651 MiB (3%)
Title : MVO Тайкун
Язык : Russian
Default : No
Forced : No
Audio #4
ID : 6
Формат : AC-3
Формат/Info : Audio Coding 3
Расширение режима : CM (complete main)
Кодек ID : A_AC3
Длительность : 2h 22mn
Битрейт mode : Constant
Битрейт : 640 Kbps
Каналы(s) : 6 каналов
Каналы positions : Front: L C R, Side: L R, LFE
Частота : 48.0 KHz
Разрядность : 16 bits
Режим сжатия : Lossy
Размер потока : 651 MiB (3%)
Title : Original
Язык : English
Default : No
Forced : No
Text #1
ID : 3
Формат : UTF-8
Кодек ID : S_TEXT/UTF8
Кодек ID/Info : UTF-8 Plain Text
Title : Полные
Язык : Russian
Default : No
Forced : No
Text #2
ID : 7
Формат : UTF-8
Кодек ID : S_TEXT/UTF8
Кодек ID/Info : UTF-8 Plain Text
Title : Полные
Язык : English
Default : No
Forced : No
Menu
00:00:00.000 : :1. I'm Forest...Forest Gump
00:06:43.569 : :2. Mama
00:12:24.577 : :3. Like Peas and Carrots
00:19:56.945 : :4. Run Forest Run!
00:31:13.705 : :5. Private Gump
00:40:40.187 : :6. Lieutenant Dan
00:44:18.113 : :7. My Best Good Friend
00:56:34.474 : :8. Wounded In the Buttocks
01:03:32.266 : :9. You're My Girl
01:13:34.076 : :10. National Celebrity
01:17:02.826 : :11. Happy New Year
01:23:52.277 : :12. Shrimp Boat Captain
01:34:59.944 : :13. Bubba Gump
01:38:55.596 : :14. Mama's Trip To Heaven
01:43:52.893 : :15. Jenny Comes Home
01:51:28.306 : :16. A Little Run
01:58:54.710 : :17. Forrest Meets Forrest
02:04:48.564 : :18. Beloved Mother, Wife and Friend
02:15:25.200 : :19. Credits

Скриншоты

-
[Профиль] [ЛС]
Показать сообщения:    

Текущее время: Сегодня 08:14

Часовой пояс: GMT



Вы не можете начинать темы
Вы не можете отвечать на сообщения
Вы не можете редактировать свои сообщения
Вы не можете удалять свои сообщения
Вы не можете голосовать в опросах
Вы не можете прикреплять файлы к сообщениям
Вы не можете скачивать файлы