Формула 1. 2016. 14/21. Гран-при Италии. 1, 2, 3 практики. Квалификация (Матч Арена HD) [02-03.09] (2016) HDTV 1080i

 
Автор Сообщение

Russian Mafia ®

Пол:

Стаж: 1 год 8 месяцев

Сообщений: 4246



Награды: 10 (Подробнее)

Top Releaser 2 (Количество: 1) Mega Seeder 1 (Количество: 1) Mega Seeder 5 (Количество: 1)
Торрент-статистика

Создавать темы 03-Сен-2016 16:08

[Цитировать]

Формула 1 / Сезон 2016 / Этап 14 / Гран-при Италии / 1, 2 практики
Вид спорта: Формула-1
Дата/Год выпуска: 02-03.08.2016
Язык комментариев: Русский (Алексей Попов, Владимир Башмаков)
Канал: Матч Арена HD

Описание:
02 августа 2016 года.
Этап 14. Гран-при Италии.
Арена: Автодром Монца (Монца, Италия)
Автор рипа/записи: _Steep_
Качество: HDTV
Формат видео: TS
Видео: H264/AVC, 1920х1080, 25 fps, ~9000 kbps
Аудио: Русский, MP2, 2 ch, 48000 Hz, 192 Kbps

Продолжительность

(02.08.2016) - 1-я свободная практика - [01:33:21]
(02.08.2016) - 2-я свободная практика - [01:39:05]
(03.08.2016) - 3-я свободная практика - [01:08:34]
(03.08.2016) - Квалификация - [01:13:58]
(04.08.2016) - Гонка - [00:00:00]

Скриншоты


Счёт/Итог

1-я свободная практика

2-я свободная практика

3-я свободная практика

Квалификация

Гонка

MediaInfo

Общее
Идентификатор : 1 (0x1)
Полное имя : F:ТВФормула 1Гран-при Италии.1080i1.Свободная практика 1_(Матч Арена HD)_HDTV_1080i_steep.ts
Формат : MPEG-TS
Размер файла : 6,50 Гбайт
Продолжительность : 1 ч. 33 м.
Режим общего битрейта : Переменный
Общий поток : 9968 Кбит/сек
Видео
Идентификатор : 324 (0x144)
Идентификатор меню : 12104 (0x2F48)
Формат : AVC
Формат/Информация : Advanced Video Codec
Профиль формата : High@L4
Параметр CABAC формата : Да
Параметр ReFrames формата : 4 кадра
Идентификатор кодека : 27
Продолжительность : 1 ч. 33 м.
Битрейт : 9282 Кбит/сек
Ширина : 1920 пикселей
Высота : 1080 пикселей
Соотношение сторон : 16:9
Частота кадров : 25,000 кадров/сек
Стандарт вещания : Component
Цветовое пространство : YUV
Субдискретизация насыщенности : 4:2:0
Битовая глубина : 8 бит
Тип развёртки : Чересстрочная
Метод сохранения типа развёртки : Раздельные поля
Порядок развёртки : Верхнее поле первое
Бит/(Пиксели*Кадры) : 0.179
Размер потока : 6,05 Гбайт (93%)
Цветовой диапазон : Limited
Основные цвета : BT.709
Характеристики трансфера : BT.709
Коэффициенты матрицы : BT.709
Аудио
Идентификатор : 404 (0x194)
Идентификатор меню : 12104 (0x2F48)
Формат : MPEG Audio
Версия формата : Version 1
Профиль формата : Layer 2
Идентификатор кодека : 3
Продолжительность : 1 ч. 33 м.
Вид битрейта : Постоянный
Битрейт : 192 Кбит/сек
Каналы : 2 канала
Частота : 48,0 КГц
Метод сжатия : С потерями
Задержка видео : -40 мс.
Размер потока : 128 Мбайт (2%)
Язык : Russian
[Профиль] [ЛС]
Показать сообщения:    

Текущее время: Сегодня 11:56

Часовой пояс: GMT



Вы не можете начинать темы
Вы не можете отвечать на сообщения
Вы не можете редактировать свои сообщения
Вы не можете удалять свои сообщения
Вы не можете голосовать в опросах
Вы не можете прикреплять файлы к сообщениям
Вы не можете скачивать файлы