Формула 1: 08/20. Гран-при Австрии. Гонка (Intro+Live) [SkySportsF1/Россия2] [21.06] (2015) HDTVRip 720p | 50 fps

 
Автор Сообщение

sergej644 ®

Пол:

Стаж: 4 года 11 месяцев

Сообщений: 6040

Откуда: Soviet Union



Награды: Нет

Торрент-статистика

Создавать темы 05-Июл-2015 19:57

[Цитировать]

Формула 1 2015 – Этап 08 – Австрия – Гонка (Intro+Live)
SkySportsF1/Россия2

-
Год выпуска: 2015
Вид спорта: Formula 1 (F1)
Участники: Пилоты Ф1 2015 и специалисты команд
Продолжительность: 1 час 25 мин + 1 час 52 мин + 1 час 24 мин
Комментарий: Профессиональный (многоголосый)
Язык комментариев:
русский: А. Попов/Н. Фабричнова
(по умолчанию, в сегменте Live, окончание в сегменте Post)
английский: М. Брандл, Д. Крофт, Д. Хилл, Д. Херберт, С. Лезинби
-
Содержание:
Австрия, Шпильберг – гонка.
Intro - интервью, сюжеты, аналитика и прогнозы на гонку.
Live - сама гонка в полном объеме.
Post - послегоночные интервью и аналитика.
-Исходник от: smcgill1969
Монтаж аудио: Bin84-Качество: HDTVRip
Формат: MKV
Видео кодек: AVC
Аудио кодек: MP3/AC3

Тех. данные:

ВидеоFormat : AVC
Format/Info : Advanced Video Codec
Format profile : High@L4.0
Format settings, CABAC : Yes
Format settings, ReFrames : 4 frames
Codec ID : V_MPEG4/ISO/AVC
Duration : 1h 52mn
Bit rate : 5 745 Kbps
Width : 1 280 pixels
Height : 720 pixels
Display aspect ratio : 16:9
Frame rate mode : Constant
Frame rate : 50.000 fps
Color space : YUV
Chroma subsampling : 4:2:0
Bit depth : 8 bits
Scan type : Progressive
Bits/(Pixel*Frame) : 0.125
Stream size : 4.52 GiB (90%)
Title : Bin84 release
АудиоAudio #1
ID : 2
Format : MPEG Audio
Format version : Version 1
Format profile : Layer 3
Mode : Joint stereo
Codec ID : A_MPEG/L3
Codec ID/Hint : MP3
Duration : 1h 52mn
Bit rate mode : Constant
Bit rate : 192 Kbps
Channel(s) : 2 channels
Sampling rate : 48.0 KHz
Compression mode : Lossy
Stream size : 155 MiB (3%)
Title : Russia2
Language : Russian
Default : Yes
Forced : No
Audio #2
ID : 3
Format : AC-3
Format/Info : Audio Coding 3
Mode extension : CM (complete main)
Format settings, Endianness : Big
Codec ID : A_AC3
Duration : 1h 52mn
Bit rate mode : Constant
Bit rate : 320 Kbps
Channel(s) : 6 channels
Channel positions : Front: L C R, Side: L R, LFE
Sampling rate : 48.0 KHz
Bit depth : 16 bits
Compression mode : Lossy
Stream size : 258 MiB (5%)
Title : SkySports
Language : English
Default : No
Forced : No

Скриншоты


[Профиль] [ЛС]
Показать сообщения:    

Текущее время: Сегодня 20:40

Часовой пояс: GMT



Вы не можете начинать темы
Вы не можете отвечать на сообщения
Вы не можете редактировать свои сообщения
Вы не можете удалять свои сообщения
Вы не можете голосовать в опросах
Вы не можете прикреплять файлы к сообщениям
Вы не можете скачивать файлы