Формула 1. Гран-При Абу-Даби. Квалификация (2014) HDTVRip [H.264]

 
Автор Сообщение

sergej644 ®

Пол:

Стаж: 4 года 11 месяцев

Сообщений: 6040

Откуда: Soviet Union



Награды: Нет

Торрент-статистика

Создавать темы 22-Ноя-2014 17:42

[Цитировать]

-Формула 1. Гран-При Абу-Даби. Квалификация (2014) HDTVRip [H.264]- Режиссер / Телекомпания: Россия,
Год выпуска: 2014
Жанр: Спорт, авто
Комментатор: Алексей Попов, Наталья Фабричнова
Описание:
Девятнадцатый и заключительный этап сезона "Формулы-1" пройдет на трассе в Абу-Даби, где и станет известен новый чемпион. Лидирует перед последним этапом британец Льюис Хэмилтон из "Мерседеса" с 334 очками, его единственный конкурент напарник немец Нико Росберг отстает на 17 баллов.
Гран-при "Формулы-1" пройдет в шестой раз на трассе в Абу-Даби, лучшие результаты здесь показывал пилот "Ред Булл" Себастьян Феттель, который за день до финального этапа был объявлен гонщиком "Феррари" на ближайшие три года. На счету Феттеля два поула и три победы в гонке. Еще дважды с поула стартовал Хэмилтон, добавивший к ним одну победу. Еще один раз победу одержал Кими Райкконен. Лучшим же результатом Росберга было третье место на старте и финише. (С)
Продолжительность: 01:11:14
Качество видео: HDTVRip
Видеокодек: MPEG-4 AVC/H.264
Битрейт видео: 1900 kb/s
Размер кадра: 704х400
Аудиокодек: AC3, 2 ch
Битрейт аудио: 192 kb/s

MI

Общее
Полное имя                               : D:\Раздачи\Формула-1. Абу-Даби. Квала. Багга. 22.11.2014.mkv
Формат                                   : Matroska
Версия формата                           : Version 4 / Version 2
Размер файла                             : 1.08 Гбайт
Продолжительность                        : 1 ч. 11 м.
Общий поток                              : 2041 Кбит/сек
Библиотека кодирования                   : MPlayer
Видео
Идентификатор                            : 1
Формат                                   : AVC
Формат/Информация                        : Advanced Video Codec
Профиль формата                          : [url=mailto:High@L4.1]High@L4.1[/url]
Параметр CABAC формата                   : Да
Параметр ReFrames формата                : 4 кадра
Идентификатор кодека                     : V_MPEG4/ISO/AVC
Продолжительность                        : 1 ч. 11 м.
Битрейт                                  : 1900 Кбит/сек
Ширина                                   : 704 пикселя
Высота                                   : 400 пикселей
Соотношение сторон                       : 16:9
Частота кадров                           : 25,000 кадров/сек
Цветовое пространство                    : YUV
Субдискретизация насыщенности            : 4:2:0
Битовая глубина                          : 8 бит
Тип развёртки                            : Прогрессивная
Метод сжатия                             : С потерями
Бит/(Пиксели*Кадры)                      : 0.270
Размер потока                            : 2,03 Гбайт (93%)
Библиотека кодирования                   : XviD 64
Аудио
Идентификатор                            : 2
Формат                                   : AC-3
Формат/Информация                        : Audio Coding 3
Расширение режима                        : CM (complete main)
Параметр Endianness формата              : Big
Идентификатор кодека                     : A_AC3
Продолжительность                        : 1 ч. 11 м.
Вид битрейта                             : Постоянный
Битрейт                                  : 192 Кбит/сек
Каналы                                   : 2 канала
Расположение каналов                     : Front: L R
Частота                                  : 48,0 КГц
Битовая глубина                          : 16 бит
Метод сжатия                             : С потерями
Размер потока                            : 89,3 Мбайт (5%)
Язык                                     : Russian
Default                                  : Да
Forced                                   : Нет
Скриншоты: --
[Профиль] [ЛС]
Показать сообщения:    

Текущее время: Сегодня 22:38

Часовой пояс: GMT



Вы не можете начинать темы
Вы не можете отвечать на сообщения
Вы не можете редактировать свои сообщения
Вы не можете удалять свои сообщения
Вы не можете голосовать в опросах
Вы не можете прикреплять файлы к сообщениям
Вы не можете скачивать файлы