Формула любви (Марк Захаров) [1984, СССР, мелодрама, комедия, BDRip 720p]

 
Автор Сообщение

TorrentFilm ®

Пол:

Стаж: 1 год 11 месяцев

Сообщений: 7741



Награды: Нет

Торрент-статистика

Создавать темы 02-Янв-2016 00:00

[Цитировать]

Формула любви- Год выпуска: 1984
Страна: СССР-Жанры: мелодрама, комедия
Продолжительность: 01:30:11
Cубтитры: нет
Навигация по главам: есть
Режиссер: Марк Захаров-В ролях: Нодар Мгалоблишвили (граф Калиостро), Александр Абдулов (Жакоб), Семен Фарада (Маргадон), Елена Валюшкина (Мария), Александр Михайлов (Алексей Федяшев), Александра Захарова (Фимка), Елена Аминова (Лоренца), Леонид Броневой (доктор), Татьяна Пельтцер (Федосья Ивановна), Николай Скоробогатов (Степан)-Описание: Музыкальная комедия по мотивам повести Алексея Толстого «Граф Калиостро». В 1780 году Джузеппе Калиостро прибыл в Россию для представления высшей знати. Умыкнув под предлогом лечения отца юную Марью Ивановну, граф пытается влюбить в себя девицу, но безуспешно. В провинциальном поместье, где волею случая оказались путешественники, живет юноша, влюбленный в мраморную статую. С помощью Калиостро он надеется оживить мрамор, но встреча с живой Машей все меняет...-Доп. информация: Полная реставрация изображения и звука. Исходные киноматериалы подготовлены Госфильмофондом России. Покадровая цифровая реставрация изображения, ремастеринг звука и авторинг проведены объединением «Крупный план».-Релиз от - СЭМПЛ-Качество: BDRip (Geralt iz Rivii)
Формат: MKV
Видео кодек: AVC
Аудио кодек: DTS
Видео: ~ 5 429 Kbps, 986x720, 23.976 fps
Аудио 1: Russian - DTS, ~1 536 Kbps, 48KHz, 6ch
Аудио 2: Russian - AC3, 224 Kbps, 48KHz, 1ch

Знаете ли вы, что...


• Во время съёмок Нодар Мгалоблишвили сломал ногу, но замену актёру искать не стали, и он продолжил сниматься, хотя его нога была в гипсе.
• Каменная фигура, о которой грезил один из героев фильма, «засветилась» в двух других советских комедиях. В «Старом новом годе» её в бане лицезреют герои Калягина и Невинного, а так же внимательный зритель её заметит на первом этаже офиса в «Служебном романе».

Подробные тех. данные

General
Unique ID : 255086739087905811897559252391544879213 (0xBFE7EB3E82184709B8CD64AFD515F86D)
Complete name : D:\Фильмы\Наши\Formula.Lyubvi.1984.720p.BluRay.Rus.mkv
Format : Matroska
Format version : Version 2
File size : 4.51 GiB
Duration : 1h 30mn
Overall bit rate : 7 164 Kbps
Movie name : Формула любви (1984)
Encoded date : UTC 2012-10-25 05:40:17
Writing application : mkvmerge v5.2.0 ('I can't explain') built on Dec 18 2011 18:12:03
Writing library : libebml v1.2.3 + libmatroska v1.3.0
Video
ID : 1
Format : AVC
Format/Info : Advanced Video Codec
Format profile : High@L4.1
Format settings, CABAC : Yes
Format settings, ReFrames : 9 frames
Codec ID : V_MPEG4/ISO/AVC
Duration : 1h 30mn
Bit rate : 5 430 Kbps
Width : 986 pixels
Height : 720 pixels
Display aspect ratio : 4:3
Frame rate : 23.976 fps
Color space : YUV
Chroma subsampling : 4:2:0
Bit depth : 8 bits
Scan type : Progressive
Bits/(Pixel*Frame) : 0.319
Stream size : 3.33 GiB (74%)
Title : Формула любви (1984)
Writing library : x264 core 113 r1884kMod 7313bb5
Encoding settings : cabac=1 / ref=9 / deblock=1:-3:-3 / analyse=0x3:0x133 / me=umh / subme=10 / psy=1 / fade_compensate=0.00 / psy_rd=1.00:0.00 / mixed_ref=1 / me_range=30 / chroma_me=1 / trellis=2 / 8x8dct=1 / cqm=0 / deadzone=21,11 / fast_pskip=0 / chroma_qp_offset=-2 / threads=12 / sliced_threads=0 / nr=0 / decimate=0 / interlaced=0 / constrained_intra=0 / bframes=8 / b_pyramid=2 / b_adapt=2 / b_bias=0 / direct=3 / weightb=1 / open_gop=0 / weightp=2 / keyint=250 / keyint_min=23 / scenecut=40 / intra_refresh=0 / rc_lookahead=0 / rc=2pass / mbtree=0 / bitrate=5430 / ratetol=1.0 / qcomp=0.60 / qpmin=0 / qpmax=69 / qpstep=4 / cplxblur=20.0 / qblur=0.5 / vbv_maxrate=50000 / vbv_bufsize=62500 / nal_hrd=none / ip_ratio=1.30 / pb_ratio=1.20 / aq=1:1.00
Language : Russian
Matrix coefficients : BT.709-5, BT.1361, IEC 61966-2-4 709, SMPTE RP177
Audio #1
ID : 2
Format : DTS
Format/Info : Digital Theater Systems
Codec ID : A_DTS
Duration : 1h 30mn
Bit rate mode : Constant
Bit rate : 1 510 Kbps
Channel(s) : 6 channels
Channel positions : Front: L C R, Side: L R, LFE
Sampling rate : 48.0 KHz
Bit depth : 24 bits
Compression mode : Lossy
Stream size : 974 MiB (21%)
Title : DTS 5.1ch 1510 kbps
Language : Russian
Audio #2
ID : 3
Format : AC-3
Format/Info : Audio Coding 3
Mode extension : CM (complete main)
Codec ID : A_AC3
Duration : 1h 30mn
Bit rate mode : Constant
Bit rate : 224 Kbps
Channel(s) : 1 channel
Channel positions : Front: C
Sampling rate : 48.0 KHz
Bit depth : 16 bits
Compression mode : Lossy
Stream size : 145 MiB (3%)
Title : AC3 1.0 ch 224 kbps
Language : Russian
Menu
00:00:00.000 : ru:Пролог. Граф Калиостро
00:10:05.479 : ru:Машенька. Жертва
00:16:10.928 : ru:Алёша. Идеал
00:24:00.105 : ru:Болезнь и исцеление
00:29:34.689 : ru:В гостинице. Uno Momento
00:37:08.893 : ru:В усадьбе Федяшевых
00:45:41.572 : ru:"Материализация чувства"
00:51:38.637 : ru:Комедианты. Формула великого магистра
01:01:43.700 : ru:Любовь
01:07:29.962 : ru:Разоблачение. Дуэль
01:13:55.430 : ru:Игра с судьбой
01:21:28.675 : ru:Развязка

Скриншоты


-
Сообщения из этой темы были выделены в отдельный топик Оффтоп из: Формула любви (Марк Захаров) [1984 г., мелодрама, комедия, BDRip 720p] [4226142]
nevermnd_2k
[Профиль] [ЛС]
Показать сообщения:    

Текущее время: Сегодня 11:54

Часовой пояс: GMT



Вы не можете начинать темы
Вы не можете отвечать на сообщения
Вы не можете редактировать свои сообщения
Вы не можете удалять свои сообщения
Вы не можете голосовать в опросах
Вы не можете прикреплять файлы к сообщениям
Вы не можете скачивать файлы