Форма воды / The Shape of Water (2017) DVDScr | Sub

 
Автор Сообщение

BOSS ®

Пол:

Стаж: 3 года 3 месяца

Сообщений: 9227

Откуда: ODESSA



Награды: 22 (Подробнее)

Top Keeper 4 (Количество: 1) Mega Releaser 2 (Количество: 1) Top Releaser 4 (Количество: 1)
Торрент-статистика

Создавать темы 12-Янв-2018 10:38

[Цитировать]

Форма воды / The Shape of Water
Страна: Канада США
Производство: Bull Productions, Double Dare You (DDY), Fox Searchlight Pictures
Год выпуска: 2017
Жанр: ужасы, фэнтези, триллер, драма, мелодрама, приключения
Продолжительность: 02:02:54
Режиссер: Гильермо дель Торо
Авторы сценария: Гильермо дель Торо, Ванесса Тейлор
В ролях: Салли Хокинс, Майкл Шеннон, Ричард Дженкинс, Октавия Спенсер, Майкл Стулбарг, Даг Джонс, Дэвид Хьюлетт, Ник Сирси, Стюарт Арнотт
Описание: Действие разворачивается в 1963 году. Главная героиня — немая уборщица в научной лаборатории. В стенах секретного учреждения идёт работа по изучению отловленного человека-амфибии. Женщина влюбляется в мутанта и помогает ему бежать…

Перевод: отсутствует | субтитры
Субтитры: отдельными файлами | от студии FOCS - русские, английские-Качество: DVDScr
Формат: AVI
Видео кодек: XviD
Аудио кодек: МР3
Видео: 720x384 (1.85:1), 30.000 fps, XviD ~1 725 kbps avg, 0.208 bit/pixel
Аудио: 48.0 kHz, MPEG Layer 3, 2 ch, ~128 kbps avg | ENG / английский
Формат субтитров: *SRT
Дата премьеры (мир): 31 августа 2017
Дата премьеры (РФ): 18 января 2018, «Двадцатый Век Фокс СНГ»-
Призы Венецианского фестиваля, 2018 год
» Лучший режиссер (Гильермо дель Торо)
» Лучший саундтрек

Релиз от: Parabellumm

Media Info

General
Полное имя : The.Shape.of.Water.2017.DVDScreener.rus.sub.FOCS-PB.avi
Формат : AVI
Формат/Информация : Audio Video Interleave
Размер файла : 1,60 Гбайт
Продолжительность : 2 ч. 2 м.
Общий поток : 1864 Кбит/сек
Программа кодирования : VirtualDubMod 1.5.10.3 | www.virtualdub-fr.org || (build 2550/release)
Библиотека кодирования : VirtualDubMod build 2550/release
Видео
Идентификатор : 0
Формат : MPEG-4 Visual
Профиль формата : Advanced Simple@L5
Параметр BVOP формата : 2
Параметр QPel формата : Да
Параметр GMC формата : Без точки перехода
Параметр матрицы формата : Default (H.263)
Режим смешивания : Сжатый битовый поток
Идентификатор кодека : XVID
Идентификатор кодека/Подсказка : XviD
Продолжительность : 2 ч. 2 м.
Битрейт : 1725 Кбит/сек
Ширина : 720 пикселей
Высота : 384 пикселя
Соотношение сторон : 1,85:1
Частота кадров : 30,000 кадров/сек
Цветовое пространство : YUV
Субдискретизация насыщенности : 4:2:0
Битовая глубина : 8 бит
Тип развёртки : Прогрессивная
Метод сжатия : С потерями
Бит/(Пиксели*Кадры) : 0.208
Размер потока : 1,48 Гбайт (93%)
Библиотека кодирования : XviD 1.2.1 (UTC 2008-12-04)
Аудио
Идентификатор : 1
Формат : MPEG Audio
Версия формата : Version 1
Профиль формата : Layer 3
Идентификатор кодека : 55
Идентификатор кодека/Подсказка : MP3
Продолжительность : 2 ч. 2 м.
Вид битрейта : Постоянный
Битрейт : 128 Кбит/сек
Каналы : 2 канала
Частота : 48,0 КГц
Метод сжатия : С потерями
Размер потока : 113 Мбайт (7%)
Выравнивание : Соединение по промежуткам
Продолжительность промежутка : 33 мс. (1,00 видеокадр)
Время предзагрузки промежутка : 504 мс.
Библиотека кодирования : LAME3.99r
Настройки программы : -m s -V 4 -q 2 -lowpass 17 -b 128

Скриншоты

[Профиль] [ЛС]
Показать сообщения:    

Текущее время: Сегодня 07:48

Часовой пояс: GMT



Вы не можете начинать темы
Вы не можете отвечать на сообщения
Вы не можете редактировать свои сообщения
Вы не можете удалять свои сообщения
Вы не можете голосовать в опросах
Вы не можете прикреплять файлы к сообщениям
Вы не можете скачивать файлы