Фонтан / The Fountain (Даррен Аронофски / Darren Aronofsky) [2006, США, фантастика, драма, мелодрама, BDRip-AVC] Dub + MVO (Первый канал) + DVO (Интерфильм) + 2xAVO (Ю.Живов, Ю.Немахов) + Original (Eng) + Subs (Rus, Eng)

 
Автор Сообщение

painkiller ®

Стаж: 2 года 3 месяца

Сообщений: 582



Награды: Нет

Торрент-статистика

Создавать темы 14-Авг-2014 13:02

[Цитировать]

Фонтан / The Fountain«Что, если бы мы могли жить вечно?»- Страна: США
Жанр: фантастика, драма, мелодрама
Год выпуска: 2006
Продолжительность: 01:36:55-Перевод №1: Профессиональный (дублированный)
Перевод №2: Профессиональный (многоголосый закадровый) Первый канал
Перевод №3: Авторский (одноголосый закадровый) Ю.Живов - отдельно в раздаче
Перевод №4: Авторский (одноголосый закадровый) Ю.Немахов - отдельно в раздаче
Перевод №5: Любительский (двухголосый закадровый) Интерфильм - отдельно в раздаче
Оригинальная аудиодорожка: English
Cубтитры: Russian (forced+full), English (full+full SDH)
Навигация по главам: Присутствует (подписанная) - (23 главы)-Режиссер: Даррен Аронофски / Darren Aronofsky
В ролях: Хью Джекман, Рэйчел Вайс, Эллен Берстин, Марк Марголис, Клифф Кертис, Шон Гуллетт, Донна Мерфи, Итэн Сапли, Шон Патрик Томас-Описание: Эта история о переплетении времен и человеческих чувств. Временной отрезок, который охватывает фильм, составляет тысячу лет: действие параллельно развивается в настоящем времени, 2000-м и 1000-м годах. Главным действующим лицом является Томас Крео, который ищет Древо Жизни, сок которого, как говорят легенды, дарует вечную жизнь, чтобы спасти свою смертельно больную жену Изабель.-
Download sample-Качество видео: BDRip-AVC |
Формат видео: MKV-Видео: 1 152x624 (1.85:1), 23.976 fps, AVC ~4138 kbps avg, 0.234 bit/pixel
Аудио №1: 48 kHz, AC3, 3/2 (L,C,R,l,r) + LFE ch, ~448.00 kbps avg | Профессиональный (дублированный)
Аудио №2: 48 kHz, AC3, 2.0 (L,R) ch, ~192.00 kbps avg | Профессиональный (многоголосый закадровый) Первый канал
Аудио №3: 48 kHz, AC3, 3/2 (L,C,R,l,r) + LFE ch, ~448.00 kbps avg | Авторский (одноголосый закадровый) Ю.Живов - отдельно в раздаче
Аудио №4: 48 kHz, AC3, 3/2 (L,C,R,l,r) + LFE ch, ~448.00 kbps avg | Авторский (одноголосый закадровый) Ю.Немахов - отдельно в раздаче
Аудио №5: 48 kHz, AC3, 2.0 (L,R) ch, ~112.00 kbps avg | Любительский (двухголосый закадровый) Интерфильм - отдельно в раздаче
Аудио №6: 48 kHz, AC3, 3/2 (L,C,R,l,r) + LFE ch, ~448.00 kbps avg | English-

MediaInfo

General
Unique ID : 199121971069737190019846366210080414518 (0x95CD7F258F3776D591590AF7E5E89B36)
Complete name : D:\Фильмы\Рипы\The.Fountain.2006.BDRip-AVC.by Fredd Kruger\The.Fountain.2006.BDRip-AVC.by Fredd Kruger.mkv
Format : Matroska
Format version : Version 2
File size : 3.54 GiB
Duration : 1h 36mn
Overall bit rate : 5 228 Kbps
Movie name : The Fountain (2006) - Release for rutracker by Fredd Kruger
Encoded date : UTC 2014-03-17 08:07:56
Writing application : mkvmerge v5.0.1 ('Es ist Sommer') built on Nov 6 2011 16:23:40
Writing library : libebml v1.2.2 + libmatroska v1.3.0
Attachment : Yes
Video
ID : 1
Format : AVC
Format/Info : Advanced Video Codec
Format profile : High@L4.1
Format settings, CABAC : Yes
Format settings, ReFrames : 15 frames
Codec ID : V_MPEG4/ISO/AVC
Duration : 1h 36mn
Bit rate : 4 036 Kbps
Width : 1 152 pixels
Height : 624 pixels
Display aspect ratio : 1.85:1
Frame rate mode : Constant
Frame rate : 23.976 fps
Color space : YUV
Chroma subsampling : 4:2:0
Bit depth : 8 bits
Scan type : Progressive
Bits/(Pixel*Frame) : 0.234
Stream size : 2.73 GiB (77%)
Title : Encode by Fredd Kruger
Writing library : x264 core 142 r2389kMod 956c8d8
Encoding settings : cabac=1 / ref=15 / deblock=1:-3:-3 / analyse=0x3:0x133 / me=umh / subme=11 / psy=1 / fade_compensate=0.00 / psy_rd=1.00:0.00 / mixed_ref=1 / me_range=48 / chroma_me=1 / trellis=2 / 8x8dct=1 / cqm=0 / deadzone=21,11 / fast_pskip=1 / chroma_qp_offset=-2 / threads=8 / lookahead_threads=2 / sliced_threads=0 / nr=0 / decimate=1 / interlaced=0 / bluray_compat=0 / constrained_intra=0 / fgo=0 / bframes=16 / b_pyramid=2 / b_adapt=2 / b_bias=0 / direct=3 / weightb=1 / open_gop=0 / weightp=2 / keyint=250 / keyint_min=23 / scenecut=40 / intra_refresh=0 / rc_lookahead=60 / rc=crf / mbtree=0 / crf=16.9850 / qcomp=0.65 / qpmin=0 / qpmax=69 / qpstep=4 / vbv_maxrate=50000 / vbv_bufsize=62500 / crf_max=0.0 / nal_hrd=none / filler=0 / ip_ratio=1.40 / pb_ratio=1.30 / aq=3:0.65
Default : Yes
Forced : No
Audio #1
ID : 2
Format : AC-3
Format/Info : Audio Coding 3
Mode extension : CM (complete main)
Format settings, Endianness : Big
Codec ID : A_AC3
Duration : 1h 36mn
Bit rate mode : Constant
Bit rate : 448 Kbps
Channel count : 6 channels
Channel positions : Front: L C R, Side: L R, LFE
Sampling rate : 48.0 KHz
Bit depth : 16 bits
Compression mode : Lossy
Stream size : 311 MiB (9%)
Title : Dub
Language : Russian
Default : Yes
Forced : No
Audio #2
ID : 3
Format : AC-3
Format/Info : Audio Coding 3
Mode extension : CM (complete main)
Format settings, Endianness : Big
Codec ID : A_AC3
Duration : 1h 36mn
Bit rate mode : Constant
Bit rate : 192 Kbps
Channel count : 2 channels
Channel positions : Front: L R
Sampling rate : 48.0 KHz
Bit depth : 16 bits
Compression mode : Lossy
Stream size : 133 MiB (4%)
Title : MVO (Первый канал)
Language : Russian
Default : No
Forced : No
Audio #3
ID : 4
Format : AC-3
Format/Info : Audio Coding 3
Mode extension : CM (complete main)
Format settings, Endianness : Big
Codec ID : A_AC3
Duration : 1h 36mn
Bit rate mode : Constant
Bit rate : 448 Kbps
Channel count : 6 channels
Channel positions : Front: L C R, Side: L R, LFE
Sampling rate : 48.0 KHz
Bit depth : 16 bits
Compression mode : Lossy
Stream size : 311 MiB (9%)
Language : English
Default : No
Forced : No
Text #1
ID : 5
Format : UTF-8
Codec ID : S_TEXT/UTF8
Codec ID/Info : UTF-8 Plain Text
Title : forced
Language : Russian
Default : Yes
Forced : No
Text #2
ID : 6
Format : UTF-8
Codec ID : S_TEXT/UTF8
Codec ID/Info : UTF-8 Plain Text
Title : full
Language : Russian
Default : No
Forced : No
Text #3
ID : 7
Format : UTF-8
Codec ID : S_TEXT/UTF8
Codec ID/Info : UTF-8 Plain Text
Title : full
Language : English
Default : No
Forced : No
Text #4
ID : 8
Format : UTF-8
Codec ID : S_TEXT/UTF8
Codec ID/Info : UTF-8 Plain Text
Title : full SDH
Language : English
Default : No
Forced : No
Menu
00:00:00.000 : en:Flaming Sword
00:06:58.834 : en:Tree of Life
00:10:18.001 : en:Walk With Me
00:14:40.001 : en:Rejuvenation
00:20:04.501 : en:Dying Star
00:23:20.001 : en:Awash In Feeling
00:27:24.335 : en:Medical First
00:30:17.002 : en:Spain Is On Fire
00:35:05.336 : en:Would-Be Target
00:37:53.003 : en:Holy Pyramid
00:43:46.337 : en:I Will Be Your Eve
00:46:02.871 : en:Hope and Time
00:50:22.672 : en:Why Are You Here?
00:53:30.373 : en:Always With You
00:59:11.506 : en:Almost There
01:01:38.040 : en:Death In Circles
01:06:37.874 : en:Too Late
01:10:12.041 : en:Memory Rings
01:14:57.174 : en:We Will Live Forever
01:19:49.374 : en:Finish It
01:23:32.008 : en:The Fountain
01:26:55.175 : en:Everything's All Right
01:30:00.009 : en:End Credits

x264 log

x264 [info]: frame I:948 Avg QP:14.13 size: 93660 PSNR Mean Y:49.08 U:51.14 V:53.09 Avg:49.83 Global:49.25
x264 [info]: frame P:26107 Avg QP:15.38 size: 42329 PSNR Mean Y:47.81 U:50.21 V:52.29 Avg:48.62 Global:47.87
x264 [info]: frame B:112385 Avg QP:17.68 size: 16144 PSNR Mean Y:46.74 U:49.85 V:52.25 Avg:47.68 Global:46.75
x264 [info]: consecutive B-frames: 1.8% 1.4% 4.0% 7.5% 9.6% 62.1% 4.4% 1.0% 1.7% 0.8% 0.6% 2.1% 0.4% 0.7% 0.2% 0.2% 1.4%
x264 [info]: mb I I16..4: 4.0% 85.2% 10.8%
x264 [info]: mb P I16..4: 0.4% 13.3% 0.6% P16..4: 26.0% 34.2% 17.3% 2.0% 0.1% skip: 6.1%
x264 [info]: mb B I16..4: 0.1% 1.0% 0.0% B16..8: 35.1% 22.9% 4.6% direct: 8.0% skip:28.4% L0:45.4% L1:44.0% BI:10.6%
x264 [info]: 8x8 transform intra:91.3% inter:55.5%
x264 [info]: direct mvs spatial:100.0% temporal:0.0%
x264 [info]: coded y,uvDC,uvAC intra: 94.2% 84.8% 67.9% inter: 36.8% 22.8% 3.9%
x264 [info]: i16 v,h,dc,p: 45% 16% 4% 34%
x264 [info]: i8 v,h,dc,ddl,ddr,vr,hd,vl,hu: 7% 7% 9% 10% 15% 13% 13% 12% 13%
x264 [info]: i4 v,h,dc,ddl,ddr,vr,hd,vl,hu: 9% 8% 9% 10% 15% 13% 13% 11% 13%
x264 [info]: i8c dc,h,v,p: 44% 24% 16% 16%
x264 [info]: Weighted P-Frames: Y:13.8% UV:9.6%
x264 [info]: ref P L0: 38.0% 7.3% 18.1% 7.5% 6.6% 4.5% 4.4% 2.3% 2.3% 1.7% 1.8% 1.4% 1.5% 1.2% 1.3% 0.2%
x264 [info]: ref B L0: 64.5% 12.8% 6.6% 3.7% 2.7% 2.4% 1.9% 1.2% 1.0% 1.0% 0.8% 0.8% 0.5% 0.2%
x264 [info]: ref B L1: 91.9% 8.1%
x264 [info]: SSIM Mean Y:0.9823065 (17.522db)
x264 [info]: PSNR Mean Y:46.952 U:49.925 V:52.261 Avg:47.875 Global:46.957 kb/s:4137.93
x264 [total]: encoded 139440 frames, 7.79 fps, 4137.93 kb/s

Screenshots

[Профиль] [ЛС]

Создавать темы 06-Авг-2015 23:13 (спустя 11 месяцев 23 дня)

Топик был перенесен из форума Фильмы до 2014 года в форум Фильмы до 2012 года
sergej644
 
Кто просматривает тему:

Показать сообщения:    

Текущее время: Сегодня 00:29

Часовой пояс: GMT



Вы не можете начинать темы
Вы не можете отвечать на сообщения
Вы не можете редактировать свои сообщения
Вы не можете удалять свои сообщения
Вы не можете голосовать в опросах
Вы не можете прикреплять файлы к сообщениям
Вы не можете скачивать файлы