Фокус / Focus (2015) DVD9 | Custom

 
Автор Сообщение

Russian Mafia ®

Пол:

Стаж: 1 год 8 месяцев

Сообщений: 4257



Награды: 10 (Подробнее)

Top Releaser 5 (Количество: 1) Top Releaser 3 (Количество: 1) Mega Seeder 4 (Количество: 1)
Торрент-статистика

Создавать темы 01-Сен-2015 13:31

[Цитировать]

Год выпуска: 2015
Производство: США, Аргентина / Warner Bros., RatPac-Dune Entertainment, Zaftig Films, Kramer & Sigman Films
Жанр: Драма, мелодрама, комедия, криминал
Режиссеры: Гленн Фикарра, Джон Рекуа
Продюсеры: Дениз Ди Нови, Чарли Гоголак, Джеффри Харлэкер
Актеры: Уилл Смит, Марго Робби, Адриан Мартинес, Джералд МакРэйни, Родриго Санторо, Б.Д. Вонг, Бреннан Браун, Роберт Тейлор, Дотан Бонен, Грифф Ферст
Описание фильма:
История об опытном мошеннике, который влюбляется в девушку, делающую первые шаги на поприще нелегального отъема средств у граждан. Отношения становятся для них проблемой, когда обнаруживается, что романтика мешает их нечестному бизнесу.
Перевод: Дублированный
Субтитры: Английские, русские-Дата мировой премьеры: 25 февраля 2015
Дата российской премьеры: 26 февраля 2015, «Каро-Премьер»
Дата выхода DVD релиза: 25 июня 2015, «CP Дистрибуция»
-Продолжительность: 01:40:26
Качество видео: DVD9
Видео: MPEG-2, 720x576@1024x576 (PAL 16:9), ~6300 Кбит/сек
Аудио 1: AC3 5.1, 384 Кбит/сек [Английский - оригинал]
Аудио 2: AC3 5.1, 448 Кбит/сек [Русский - дублированный]
Доп. материалы: Вырезанные сцены

DVDInfo:

Title: Focus (2015) DVD9 PAL
Size: 5.28 Gb ( 5 540 208,00 KBytes ) - DVD-9
Enabled regions: 1, 2, 3, 4, 5, 6, 7, 8
VTS_01 :
Play Length: 01:40:26+00:00:00+00:07:43+00:00:22
Video: PAL 16:9 (720x576) VBR, Auto Letterboxed
Audio:
English (Dolby AC3, 6 ch)
Russian (Dolby AC3, 6 ch)
Subtitles:
English
Russian
Russian
VTS_02 :
Play Length: 00:00:10
Video: PAL 16:9 (720x576) VBR, Auto Letterboxed
Audio:
Not specified (Dolby AC3, 6 ch)
Subtitles:
Not specified
VTS_03 :
Play Length: 00:02:23+00:00:01+00:00:01+00:00:01
Video: PAL 16:9 (720x576) VBR, Auto Letterboxed
Audio:
English (Dolby AC3, 2 ch)
* Menus Information *
VIDEO_TS Menu
Video:
PAL 16:9 (720x576) VBR
Auto Pan&Scan
Language Unit :
Title Menu
VTS_01 Menu
Video:
PAL 16:9 (720x576) VBR
Auto Pan&Scan
Audio:
Not specified (Dolby AC3, 2 ch)
English Language Unit :
Root Menu
VTS_02 Menu
Video:
NTSC 4:3 (720x480) VBR
Auto Pan&Scan, Auto Letterboxed
Language Unit :
Root Menu
VTS_03 Menu
Video:
PAL 16:9 (720x576) VBR
Auto Pan&Scan
Language Unit :
Root Menu

MediaInfo:

Общее
Полное имя : F:ВидеоFocus (2015) DVD9 PALVIDEO_TSVTS_01_4.VOB
Формат : MPEG-PS
Размер файла : 1024 Мбайт
Продолжительность : 19 м.
Режим общего битрейта : Переменный
Общий поток : 7307 Кбит/сек
Видео
Идентификатор : 224 (0xE0)
Формат : MPEG Video
Версия формата : Version 2
Профиль формата : Main@Main
Параметр BVOP формата : Да
Параметр матрицы формата : Выборочная
Параметр GOP формата : Variable
Структура изображения : Frame
Продолжительность : 19 м.
Вид битрейта : Переменный
Битрейт : 6330 Кбит/сек
Максимальный битрейт : 7500 Кбит/сек
Ширина : 720 пикселей
Высота : 576 пикселей
Соотношение сторон : 16:9
Частота кадров : 25,000 кадров/сек
Стандарт вещания : PAL
Цветовое пространство : YUV
Субдискретизация насыщенности : 4:2:0
Битовая глубина : 8 бит
Тип развёртки : Чересстрочная
Порядок развёртки : Верхнее поле первое
Метод сжатия : С потерями
Бит/(Пиксели*Кадры) : 0.611
Временной код первого кадра : 02:00:25:19
Оригинал временного кода : Group of pictures header
GOP, открыто/закрыто : Закрыто
Размер потока : 887 Мбайт (87%)
Аудио #1
Идентификатор : 189 (0xBD)-128 (0x80)
Формат : AC-3
Формат/Информация : Audio Coding 3
Расширение режима : CM (complete main)
Параметр Endianness формата : Big
Режим смешивания : DVD-Video
Продолжительность : 19 м.
Вид битрейта : Постоянный
Битрейт : 384 Кбит/сек
Каналы : 6 каналов
Расположение каналов : Front: L C R, Side: L R, LFE
Частота : 48,0 КГц
Битовая глубина : 16 бит
Метод сжатия : С потерями
Задержка видео : -400 мс.
Размер потока : 53,8 Мбайт (5%)
Аудио #2
Идентификатор : 189 (0xBD)-129 (0x81)
Формат : AC-3
Формат/Информация : Audio Coding 3
Расширение режима : CM (complete main)
Параметр Endianness формата : Big
Режим смешивания : DVD-Video
Продолжительность : 19 м.
Вид битрейта : Постоянный
Битрейт : 448 Кбит/сек
Каналы : 6 каналов
Расположение каналов : Front: L C R, Side: L R, LFE
Частота : 48,0 КГц
Битовая глубина : 16 бит
Метод сжатия : С потерями
Задержка видео : -432 мс.
Размер потока : 62,8 Мбайт (6%)
Текст #1
Идентификатор : 189 (0xBD)-32 (0x20)
Формат : RLE
Формат/Информация : Run-length encoding
Режим смешивания : DVD-Video
Задержка видео : 1 с. 480 мс.
Текст #2
Идентификатор : 189 (0xBD)-33 (0x21)
Формат : RLE
Формат/Информация : Run-length encoding
Режим смешивания : DVD-Video
Задержка видео : 1 с. 320 мс.
Меню

Доп. информация:

Исходником послужил лицензионный DVD9 из-за рубежа. Французскую звуковую дорожку заменил на русскую вместе с субтитрами. Немецкую и итальянскую звуковую дорожку вместе с субтитрами удалил.
Предупреждающие надписи скрыл.
Русская звуковая дорожка и форс. субтитры включаются по умолчанию.
Доп. материалы переведены русскими субтитрами.
Использовались программы: MKVExtractGUI2, TranzcodeGUI, SONY Vegas Pro, DVD ReMake Pro, PgcDemux, Adobe PhotoShop, MuxMan, Subtitle Workshop, MaestroSBT, DVDSubEdit.

Скриншоты меню:

Скриншоты:
[Профиль] [ЛС]
Кто просматривает тему:

Форум Тема Автор Размер
National Geographic NG: Больше чем фокусы с Ди Эм Си: Горящий человек / Beyond Magic With DMC (2014) SATRip (Серия 5) sergej644 560 MB
Разная литература Артур Бенджамин, Майкл Шермер - Магия чисел. Ментальные вычисления в уме и другие математические фокусы [2014, PDF] достали все 4 MB
Научная и техническая литература Журнал | Наука в фокусе №11 (ноябрь 2014) [PDF] sergej644 53 MB
Документальные HD Мир в фокусе. Американская трагедия (RT) [2014, документальный, HDTVRip 1080i] TorrentFilm 1.41 GB
Документальные HD Мир в фокусе. Арийцы / Die Arier (RT) [2013, документальный, HDTVRip 1080i] TorrentFilm 1.84 GB
Документальные HD Мир в фокусе. Протестная волна (RT) [2014, документальный, HDTVRip 1080i] TorrentFilm 1.8 GB
Документальные HD Мир в фокусе. Сахара: зима в пустыне (RT) [2014, документальный, HDTVRip 1080i] TorrentFilm 992 MB
Документальные HD Мир в фокусе. Скоро начнется ночь (RT) [2013, документальный, HDTVRip 1080i] TorrentFilm 955 MB
Показать сообщения:    

Текущее время: Сегодня 22:42

Часовой пояс: GMT



Вы не можете начинать темы
Вы не можете отвечать на сообщения
Вы не можете редактировать свои сообщения
Вы не можете удалять свои сообщения
Вы не можете голосовать в опросах
Вы не можете прикреплять файлы к сообщениям
Вы не можете скачивать файлы