Фокус / Focus (Гленн Фикарра / Glenn Ficarra, Джон Рекуа / John Requa) [2015, США, Аргентина, драма, мелодрама, комедия, криминал, BDRip-AVC] Dub CEE + Sub Rus

 
Автор Сообщение

TorrentFilm ®

Пол:

Стаж: 2 года

Сообщений: 7741



Награды: Нет

Торрент-статистика

Создавать темы 21-Авг-2015 00:06

[Цитировать]

Фокус / Focus- Страна: США, Аргентина
Жанр: драма, мелодрама, комедия, криминал
Год выпуска: 2015
Продолжительность: 01:44:44
Перевод: Профессиональный (дублированный) CEE
Cубтитры русские: есть-Режиссер: Гленн Фикарра / Glenn Ficarra, Джон Рекуа / John Requa
В ролях: Уилл Смит, Марго Робби, Адриан Мартинес, Джералд МакРэйни, Родриго Санторо, Б.Д. Вонг, Бреннан Браун, Роберт Тейлор, Дотан Бонен, Грифф Ферст.
Описание: Опытный аферист и умелый манипулятор Никки становится жертвой не самой удачной разводки, за которой стоит красавица Джесс. В ответ на насмешки бывалого вора девушка ставит своей целью влиться в команду Никки. Очень скоро ей это удается, больше того, Джесс проявляет недюжинный талант и умения, но опасающийся того, что личная привязанность, а тем более глубокие чувства могут помешать делу, Никки решает расстаться с новой пассией. Спустя три года бывшие любовники снова встречаются во время работы над одной серьезной мошеннической схемой, однако теперь они находятся по разные стороны баррикад…-Релиз от: HELLYWOOD | Автор рипа: potroks-Качество видео: BDRip-AVC (Focus.2015.1080p.CEE.Blu-ray)
Формат видео: MKV | Sample
Видео: 896x504 (16:9), 23.976 fps, x264@L4.1 ~1613 kbps avg, 0.15 bit/pixel
Аудио: 48 kHz, AC3 Dolby Digital, 3/2 (L,C,R,l,r) + LFE ch, ~384.00 kbps avg
Cубтитры: русские полные, русские форсированные

Инфо

Формат : Matroska
Версия формата : Version 4 / Version 2
Размер файла : 1,46 Гбайт
Продолжительность : 1 ч. 44 м.
Общий поток : 1997 Кбит/сек
Название фильма : Focus (2015) - HELLYWOOD
Дата кодирования : UTC 2015-06-18 23:02:52
Программа кодирования : mkvmerge v5.9.0 ('On The Loose') built on Dec 15 2012 16:39:58
Библиотека кодирования : libebml v1.3.0 + libmatroska v1.4.0
Видео
Идентификатор : 1
Формат : AVC
Формат/Информация : Advanced Video Codec
Профиль формата : High@L4.1
Параметр CABAC формата : Да
Параметр ReFrames формата : 12 кадров
Идентификатор кодека : V_MPEG4/ISO/AVC
Продолжительность : 1 ч. 44 м.
Битрейт : 1613 Кбит/сек
Ширина : 896 пикселей
Высота : 504 пикселя
Соотношение сторон : 16:9
Режим частоты кадров : Постоянный
Частота кадров : 23,976 кадра/сек
Цветовое пространство : YUV
Субдискретизация насыщенности : 4:2:0
Битовая глубина : 8 бит
Тип развёртки : Прогрессивная
Бит/(Пиксели*Кадры) : 0.149
Размер потока : 1,15 Гбайт (79%)
Заголовок : potroks
Библиотека кодирования : x264 core 146 r2538 121396c
Настройки программы : cabac=1 / ref=12 / deblock=1:-3:-2 / analyse=0x3:0x113 / me=umh / subme=11 / psy=1 / psy_rd=1.01:0.05 / mixed_ref=1 / me_range=48 / chroma_me=1 / trellis=2 / 8x8dct=1 / cqm=0 / deadzone=21,11 / fast_pskip=0 / chroma_qp_offset=-3 / threads=9 / lookahead_threads=2 / sliced_threads=0 / nr=0 / decimate=1 / interlaced=0 / bluray_compat=0 / constrained_intra=0 / bframes=13 / b_pyramid=2 / b_adapt=2 / b_bias=0 / direct=3 / weightb=1 / open_gop=0 / weightp=2 / keyint=250 / keyint_min=23 / scenecut=40 / intra_refresh=0 / rc_lookahead=150 / rc=2pass / mbtree=1 / bitrate=1613 / ratetol=1.0 / qcomp=0.70 / qpmin=0 / qpmax=69 / qpstep=4 / cplxblur=20.0 / qblur=0.5 / vbv_maxrate=14000 / vbv_bufsize=14000 / nal_hrd=none / filler=0 / ip_ratio=1.35 / aq=2:0.80
Язык : English
Default : Да
Forced : Нет
Аудио
Идентификатор : 2
Формат : AC-3
Формат/Информация : Audio Coding 3
Расширение режима : CM (complete main)
Параметр Endianness формата : Big
Идентификатор кодека : A_AC3
Продолжительность : 1 ч. 44 м.
Вид битрейта : Постоянный
Битрейт : 384 Кбит/сек
Каналы : 6 каналов
Расположение каналов : Front: L C R, Side: L R, LFE
Частота : 48,0 КГц
Метод сжатия : С потерями
Размер потока : 288 Мбайт (19%)
Язык : Russian
Default : Да
Forced : Нет
Текст #1
Идентификатор : 3
Формат : UTF-8
Идентификатор кодека : S_TEXT/UTF8
Идентификатор кодека/Информация : UTF-8 Plain Text
Заголовок : форс.
Язык : Russian
Default : Да
Forced : Нет
Текст #2
Идентификатор : 4
Формат : UTF-8
Идентификатор кодека : S_TEXT/UTF8
Идентификатор кодека/Информация : UTF-8 Plain Text
Язык : Russian
Default : Нет
Forced : Нет
Меню
00:00:00.000 : :Chapter 01
00:09:17.974 : :Chapter 02
00:18:55.217 : :Chapter 03
00:30:22.903 : :Chapter 04
00:40:56.077 : :Chapter 05
00:49:16.368 : :Chapter 06
01:00:10.481 : :Chapter 07
01:11:02.756 : :Chapter 08
01:20:27.488 : :Chapter 09
01:28:33.890 : :Chapter 10
01:39:19.619 : :Chapter 11
01:44:43.902 : :Chapter 12

Скриншоты

[Профиль] [ЛС]
Кто просматривает тему:

Форум Тема Автор Размер
National Geographic NG: Больше чем фокусы с Ди Эм Си: Горящий человек / Beyond Magic With DMC (2014) SATRip (Серия 5) sergej644 560 MB
Разная литература Артур Бенджамин, Майкл Шермер - Магия чисел. Ментальные вычисления в уме и другие математические фокусы [2014, PDF] достали все 4 MB
Научная и техническая литература Журнал | Наука в фокусе №11 (ноябрь 2014) [PDF] sergej644 53 MB
Документальные HD Мир в фокусе. Американская трагедия (RT) [2014, документальный, HDTVRip 1080i] TorrentFilm 1.41 GB
Документальные HD Мир в фокусе. Арийцы / Die Arier (RT) [2013, документальный, HDTVRip 1080i] TorrentFilm 1.84 GB
Документальные HD Мир в фокусе. Протестная волна (RT) [2014, документальный, HDTVRip 1080i] TorrentFilm 1.8 GB
Документальные HD Мир в фокусе. Сахара: зима в пустыне (RT) [2014, документальный, HDTVRip 1080i] TorrentFilm 992 MB
Документальные HD Мир в фокусе. Скоро начнется ночь (RT) [2013, документальный, HDTVRip 1080i] TorrentFilm 955 MB
Показать сообщения:    

Текущее время: Сегодня 16:20

Часовой пояс: GMT



Вы не можете начинать темы
Вы не можете отвечать на сообщения
Вы не можете редактировать свои сообщения
Вы не можете удалять свои сообщения
Вы не можете голосовать в опросах
Вы не можете прикреплять файлы к сообщениям
Вы не можете скачивать файлы