Фокус / Focus (2015) WEB-DL 720p | Чистый звук

 
Автор Сообщение

достали все ®

Пол:

Стаж: 1 год 8 месяцев

Сообщений: 6600



Награды: 12 (Подробнее)

Mega Releaser 3 (Количество: 1) Top Releaser 2 (Количество: 1) Mega Seeder 1 (Количество: 1)
Торрент-статистика

Создавать темы 12-Май-2015 03:37

[Цитировать]

Информация о фильме
Название: Фокус
Оригинальное название: Focus
Год выхода: 2015
Жанр: драма, мелодрама, комедия, криминал
Режиссер: Гленн Фикарра, Джон Рекуа
В ролях: Уилл Смит, Марго Робби, Родриго Санторо, Джералд МакРэйни, Б.Д. Вонг, Роберт Тейлор, Бреннан Браун, Адриан Мартинес, Лаура Флэннери, Стефани Онор
О фильме: История об опытном мошеннике, который влюбляется в девушку, делающую первые шаги на поприще нелегального отъема средств у граждан. Отношения становятся для них проблемой, когда обнаруживается, что романтика мешает их нечестному бизнесу.

Выпущено: США / Kramer & Sigman Films, Zaftig Films
Продолжительность: 01:44:40
Озвучивание: Дублированное [Чистый звук] Официальный
Файл
Формат: MKV
Качество: WEB-DL 720p
Видео: 3977 Kb/s, 1280x718
Аудио: Russian: AC3, 384 Kb/s (2 ch) / English: : AC3, 384 Kb/s (6 ch)

MI

Format : Matroska
Format version : Version 2
File size : 3.54 GiB
Duration : 1h 44mn
Overall bit rate : 4 842 Kbps
Encoded date : UTC 2015-05-11 20:14:32
Writing application : mkvmerge v7.9.0 ('Birds') 64bit
Writing library : libebml v1.3.1 + libmatroska v1.4.2
Video
ID : 1
Format : AVC
Format/Info : Advanced Video Codec
Format profile : High@L3.1
Format settings, CABAC : No
Format settings, ReFrames : 2 frames
Codec ID : V_MPEG4/ISO/AVC
Duration : 1h 44mn
Bit rate : 3 977 Kbps
Width : 1 280 pixels
Height : 718 pixels
Display aspect ratio : 16:9
Frame rate : 23.976 fps
Color space : YUV
Chroma subsampling : 4:2:0
Bit depth : 8 bits
Scan type : Progressive
Bits/(Pixel*Frame) : 0.181
Stream size : 2.91 GiB (82%)
Language : English
Default : Yes
Forced : No
Color primaries : BT.709-5, BT.1361, IEC 61966-2-4, SMPTE RP177
Transfer characteristics : BT.709-5, BT.1361
Matrix coefficients : BT.709-5, BT.1361, IEC 61966-2-4 709, SMPTE RP177
Audio #1
ID : 2
Format : AC-3
Format/Info : Audio Coding 3
Mode extension : CM (complete main)
Format settings, Endianness : Big
Codec ID : A_AC3
Duration : 1h 44mn
Bit rate mode : Constant
Bit rate : 384 Kbps
Channel(s) : 2 channels
Channel positions : Front: L R
Sampling rate : 48.0 KHz
Bit depth : 16 bits
Compression mode : Lossy
Stream size : 287 MiB (8%)
Language : Russian
Default : Yes
Forced : No
Audio #2
ID : 3
Format : AC-3
Format/Info : Audio Coding 3
Mode extension : CM (complete main)
Format settings, Endianness : Big
Codec ID : A_AC3
Duration : 1h 44mn
Bit rate mode : Constant
Bit rate : 384 Kbps
Channel(s) : 6 channels
Channel positions : Front: L C R, Side: L R, LFE
Sampling rate : 48.0 KHz
Bit depth : 16 bits
Compression mode : Lossy
Stream size : 287 MiB (8%)
Language : English
Default : No
Forced : No
Menu
00:00:00.000 : en:1
00:09:16.000 : en:2
00:18:53.000 : en:3
00:30:21.000 : en:4
00:40:54.000 : en:5
00:49:14.000 : en:6
01:00:08.000 : en:7
01:11:01.000 : en:8
01:20:25.000 : en:9
01:28:32.000 : en:10
01:39:17.000 : en:11

Скриншоты



[Профиль] [ЛС]
Кто просматривает тему:

Форум Тема Автор Размер
National Geographic NG: Больше чем фокусы с Ди Эм Си: Горящий человек / Beyond Magic With DMC (2014) SATRip (Серия 5) sergej644 560 MB
Разная литература Артур Бенджамин, Майкл Шермер - Магия чисел. Ментальные вычисления в уме и другие математические фокусы [2014, PDF] достали все 4 MB
Научная и техническая литература Журнал | Наука в фокусе №11 (ноябрь 2014) [PDF] sergej644 53 MB
Документальные HD Мир в фокусе. Американская трагедия (RT) [2014, документальный, HDTVRip 1080i] TorrentFilm 1.41 GB
Документальные HD Мир в фокусе. Арийцы / Die Arier (RT) [2013, документальный, HDTVRip 1080i] TorrentFilm 1.84 GB
Документальные HD Мир в фокусе. Протестная волна (RT) [2014, документальный, HDTVRip 1080i] TorrentFilm 1.8 GB
Документальные HD Мир в фокусе. Сахара: зима в пустыне (RT) [2014, документальный, HDTVRip 1080i] TorrentFilm 992 MB
Документальные HD Мир в фокусе. Скоро начнется ночь (RT) [2013, документальный, HDTVRip 1080i] TorrentFilm 955 MB
Показать сообщения:    

Текущее время: Сегодня 05:12

Часовой пояс: GMT



Вы не можете начинать темы
Вы не можете отвечать на сообщения
Вы не можете редактировать свои сообщения
Вы не можете удалять свои сообщения
Вы не можете голосовать в опросах
Вы не можете прикреплять файлы к сообщениям
Вы не можете скачивать файлы