Фокус / Focus (Гленн Фикарра, Джон Рекуа) [2015 г., драма, мелодрама, комедия, криминал,BDRip-AVC] DUB (Чистый звук)

 
Автор Сообщение

adeei ®

Пол:

Стаж: 1 год 8 месяцев

Сообщений: 63

Откуда: Россия Иваново



Награды: 3 (Подробнее)

Mega Seeder 3 (Количество: 1) Mega Seeder 2 (Количество: 1) Mega Seeder 1 (Количество: 1)
Торрент-статистика

Создавать темы 19-Мар-2015 08:52

[Цитировать]

Фокус / Focus«Узнай в чём фокус»
Год выпуска: 2015
Страна: США / Kramer & Sigman Films, Zaftig Films
Жанр: драма, мелодрама, комедия, криминал
Продолжительность: 01:44:27
Перевод: Дублированный [Чистый звук]
Режиссер: Гленн Фикарра, Джон Рекуа
В ролях: Уилл Смит, Марго Робби, Родриго Санторо, Джералд МакРэйни, Б.Д. Вонг, Роберт Тейлор, Бреннан Браун, Адриан Мартинес, Лаура Флэннери, Стефани Онор
Описание: История об опытном мошеннике, который влюбляется в девушку, делающую первые шаги на поприще нелегального отъема средств у граждан. Отношения становятся для них проблемой, когда обнаруживается, что романтика мешает их нечестному бизнесу.

Качество: BDRip-AVC
Формат: MKV
Аудио кодек: AC3
Видео: AVC at 2675 Кбит/сек, 1008 x 562 at 30.000 fps
Аудио: AC3, 128 kb/s (2 ch), 48 Кгц - Официальный

Скриншоты

Медио инфо

Общее
Уникальный идентификатор : 178125120712692513918976741928615522103 (0x8601A67F7CFEFDBDA936A5E5BF93AF37)
Полное имя : D:\ftp\F0kus.2015.D.WEBRip-AVC. [Tarkin].mkv
Формат : Matroska
Версия формата : Version 2
Размер файла : 2,05 Гбайт
Продолжительность : 1 ч. 44 м.
Общий поток : 2805 Кбит/сек
Дата кодирования : UTC 2015-03-18 04:43:36
Программа кодирования : mkvmerge v6.1.0 ('Old Devil') built on Mar 4 2013 09:10:42
Библиотека кодирования : libebml v1.3.0 + libmatroska v1.4.0
Видео
Идентификатор : 1
Формат : AVC
Формат/Информация : Advanced Video Codec
Профиль формата : High@L4.1
Параметр CABAC формата : Да
Параметр ReFrames формата : 10 кадров
Идентификатор кодека : V_MPEG4/ISO/AVC
Продолжительность : 1 ч. 44 м.
Битрейт : 2675 Кбит/сек
Ширина : 1008 пикселей
Высота : 562 пикселя
Соотношение сторон : 16:9
Режим частоты кадров : Постоянный
Частота кадров : 30,000 кадров/сек
Цветовое пространство : YUV
Субдискретизация насыщенности : 4:2:0
Битовая глубина : 8 бит
Тип развёртки : Прогрессивная
Бит/(Пиксели*Кадры) : 0.157
Размер потока : 1,92 Гбайт (93%)
Библиотека кодирования : x264 core 130 r2273 b3065e6
Настройки программы : cabac=1 / ref=10 / deblock=1:-1:-2 / analyse=0x3:0x133 / me=umh / subme=11 / psy=1 / psy_rd=1.00:0.10 / mixed_ref=1 / me_range=32 / chroma_me=1 / trellis=2 / 8x8dct=1 / cqm=0 / deadzone=21,11 / fast_pskip=0 / chroma_qp_offset=-3 / threads=6 / lookahead_threads=1 / sliced_threads=0 / nr=0 / decimate=0 / interlaced=0 / bluray_compat=0 / constrained_intra=0 / bframes=3 / b_pyramid=2 / b_adapt=2 / b_bias=0 / direct=3 / weightb=1 / open_gop=0 / weightp=2 / keyint=250 / keyint_min=25 / scenecut=40 / intra_refresh=0 / rc_lookahead=50 / rc=2pass / mbtree=1 / bitrate=2675 / ratetol=1.0 / qcomp=0.60 / qpmin=0 / qpmax=69 / qpstep=4 / cplxblur=20.0 / qblur=0.5 / ip_ratio=1.40 / aq=1:1.00
Default : Да
Forced : Нет
Аудио
Идентификатор : 2
Формат : AC-3
Формат/Информация : Audio Coding 3
Расширение режима : CM (complete main)
Параметр Endianness формата : Big
Идентификатор кодека : A_AC3
Продолжительность : 1 ч. 44 м.
Вид битрейта : Постоянный
Битрейт : 128 Кбит/сек
Каналы : 2 канала
Расположение каналов : Front: L R
Частота : 48,0 КГц
Битовая глубина : 16 бит
Метод сжатия : С потерями
Размер потока : 95,8 Мбайт (5%)
Default : Да
Forced : Нет
[Профиль] [ЛС]
Кто просматривает тему:

Форум Тема Автор Размер
National Geographic NG: Больше чем фокусы с Ди Эм Си: Горящий человек / Beyond Magic With DMC (2014) SATRip (Серия 5) sergej644 560 MB
Разная литература Артур Бенджамин, Майкл Шермер - Магия чисел. Ментальные вычисления в уме и другие математические фокусы [2014, PDF] достали все 4 MB
Научная и техническая литература Журнал | Наука в фокусе №11 (ноябрь 2014) [PDF] sergej644 53 MB
Документальные HD Мир в фокусе. Американская трагедия (RT) [2014, документальный, HDTVRip 1080i] TorrentFilm 1.41 GB
Документальные HD Мир в фокусе. Арийцы / Die Arier (RT) [2013, документальный, HDTVRip 1080i] TorrentFilm 1.84 GB
Документальные HD Мир в фокусе. Протестная волна (RT) [2014, документальный, HDTVRip 1080i] TorrentFilm 1.8 GB
Документальные HD Мир в фокусе. Сахара: зима в пустыне (RT) [2014, документальный, HDTVRip 1080i] TorrentFilm 992 MB
Документальные HD Мир в фокусе. Скоро начнется ночь (RT) [2013, документальный, HDTVRip 1080i] TorrentFilm 955 MB
Показать сообщения:    

Текущее время: Сегодня 02:26

Часовой пояс: GMT



Вы не можете начинать темы
Вы не можете отвечать на сообщения
Вы не можете редактировать свои сообщения
Вы не можете удалять свои сообщения
Вы не можете голосовать в опросах
Вы не можете прикреплять файлы к сообщениям
Вы не можете скачивать файлы