Флэшбэк / Flashback (1990) WEB-DL 720p | P2, A

 
Автор Сообщение

Russian Mafia ®

Пол:

Стаж: 1 год 8 месяцев

Сообщений: 4247



Награды: 10 (Подробнее)

Mega Seeder 3 (Количество: 1) За внесенный вклад в развитие сайта (Количество: 1) Mega Seeder 1 (Количество: 1)
Торрент-статистика

Создавать темы 22-Июл-2016 14:19

[Цитировать]

Информация о фильме
Название: Флэшбэк
Оригинальное название: Flashback
Год выхода: 1990
Жанр: боевик, драма, комедия, криминал, приключения
Режиссер: Франко Амурри
В ролях: Деннис Хоппер, Кифер Сазерленд, Кэрол Кейн, Пол Дули, Клифф Де Янг, Ричард Мейсер, Майкл МакКин, Кэтлин Йорк, Том О’Брайен, Эрик Лоренц
О фильме:
Хьюи Уокер, бунтарь-хиппи со стажем преследуется ФБР за пустячное преступление 20-летней давности. Его конвоир — агент ФБР Джон Батнер, которому дано задание перевезти в тюрьму длинноволосого ветерана. Но по дороге арестант Батнера сбегает.
Пытаясь поймать беглеца, Джон вступает в конфликт с полицией, и вскоре сам пускается в бега со своим злополучным напарником.

Страна: США
Студия: 60/80 Productions, Paramount Pictures
Продолжительность: 01:47:38
Перевод: Профессиональный (двухголосый, закадровый) Paramount Channel + Авторский (одноголосый, закадровый) А.Михалев + Авторский (одноголосый, закадровый) В.Дохалов
Файл
Формат: Matroska
Видео: 1280x720 at 23.976 fps, MPEG-4 AVC, ~4000 kbps avg
Аудио#1: Russian: 48 kHz, AC3 Dolby Digital, 2/0 (L,R) ch, ~192 kbps avg |Двухголосый закадровый, Paramount Channel|
Аудио#2: Russian: 48 kHz, AC3 Dolby Digital, 2/0 (L,R) ch, ~192 kbps avg |Авторский, А.Михалев|
Аудио#3: Russian: 48 kHz, AC3 Dolby Digital, 2/0 (L,R) ch, ~192 kbps avg |Авторский, В.Дохалов|
Аудио#4: English: 48 kHz, AC3 Dolby Digital, 3/2 (L,C,R,l,r) + LFE ch, ~384.00 kbps avg
Субтитры: English
***Сохранены и подписаны оригинальные главы.
***Релиз - Pigy.

MI

Общее
Уникальный идентификатор : 176092014236340123868649766655501310050 (0x847A169C0AF04B22B593DFB159FC9862)
Полное имя : Flashback 1990 WEB-DL 720p.mkv
Формат : Matroska
Версия формата : Version 4 / Version 2
Размер файла : 3,68 Гбайт
Продолжительность : 1 ч. 47 м.
Общий поток : 4892 Кбит/сек
Дата кодирования : UTC 2016-07-19 08:30:34
Программа кодирования : mkvmerge v6.1.0 ('Old Devil') built on Mar 2 2013 14:32:37
Библиотека кодирования : libebml v1.3.0 + libmatroska v1.4.0
Видео
Идентификатор : 1
Формат : AVC
Формат/Информация : Advanced Video Codec
Профиль формата : High@L3.1
Параметр CABAC формата : Нет
Параметр ReFrames формата : 2 кадра
Идентификатор кодека : V_MPEG4/ISO/AVC
Продолжительность : 1 ч. 47 м.
Битрейт : 3835 Кбит/сек
Ширина : 1280 пикселей
Высота : 720 пикселей
Соотношение сторон : 16:9
Режим частоты кадров : Постоянный
Частота кадров : 23,976 кадра/сек
Цветовое пространство : YUV
Субдискретизация насыщенности : 4:2:0
Битовая глубина : 8 бит
Тип развёртки : Прогрессивная
Бит/(Пиксели*Кадры) : 0.174
Размер потока : 2,88 Гбайт (78%)
Язык : English
Default : Да
Forced : Нет
Цветовой диапазон : Limited
Основные цвета : BT.709
Характеристики трансфера : BT.709
Коэффициенты матрицы : BT.709
Аудио #1
Идентификатор : 2
Формат : AC-3
Формат/Информация : Audio Coding 3
Расширение режима : CM (complete main)
Параметр Endianness формата : Big
Идентификатор кодека : A_AC3
Продолжительность : 1 ч. 47 м.
Вид битрейта : Постоянный
Битрейт : 192 Кбит/сек
Каналы : 2 канала
Расположение каналов : Front: L R
Частота : 48,0 КГц
Метод сжатия : С потерями
Размер потока : 148 Мбайт (4%)
Заголовок : Paramount Channel
Язык : Russian
Default : Да
Forced : Нет
Аудио #2
Идентификатор : 3
Формат : AC-3
Формат/Информация : Audio Coding 3
Расширение режима : CM (complete main)
Параметр Endianness формата : Big
Идентификатор кодека : A_AC3
Продолжительность : 1 ч. 47 м.
Вид битрейта : Постоянный
Битрейт : 192 Кбит/сек
Каналы : 2 канала
Расположение каналов : Front: L R
Частота : 48,0 КГц
Метод сжатия : С потерями
Размер потока : 148 Мбайт (4%)
Заголовок : А.Михалев
Язык : Russian
Default : Нет
Forced : Нет
Аудио #3
Идентификатор : 4
Формат : AC-3
Формат/Информация : Audio Coding 3
Расширение режима : CM (complete main)
Параметр Endianness формата : Big
Идентификатор кодека : A_AC3
Продолжительность : 1 ч. 47 м.
Вид битрейта : Постоянный
Битрейт : 192 Кбит/сек
Каналы : 2 канала
Расположение каналов : Front: L R
Частота : 48,0 КГц
Метод сжатия : С потерями
Размер потока : 148 Мбайт (4%)
Заголовок : В.Дохалов
Язык : Russian
Default : Нет
Forced : Нет
Аудио #4
Идентификатор : 5
Формат : AC-3
Формат/Информация : Audio Coding 3
Расширение режима : CM (complete main)
Параметр Endianness формата : Big
Идентификатор кодека : A_AC3
Продолжительность : 1 ч. 47 м.
Вид битрейта : Постоянный
Битрейт : 384 Кбит/сек
Каналы : 6 каналов
Расположение каналов : Front: L C R, Side: L R, LFE
Частота : 48,0 КГц
Метод сжатия : С потерями
Размер потока : 296 Мбайт (8%)
Язык : English
Default : Нет
Forced : Нет
Текст
Идентификатор : 6
Формат : UTF-8
Идентификатор кодека : S_TEXT/UTF8
Идентификатор кодека/Информация : UTF-8 Plain Text
Язык : English
Default : Нет
Forced : Нет
Меню
00:00:00.000 : en:THE ASSIGNMENT
00:04:19.000 : en:PRISONER OF THE SYSTEM
00:10:58.000 : en:CULTURE CLASH
00:18:57.000 : en:TRIPPING
00:26:28.000 : en:SWITCHEROO
00:29:18.000 : en:THE GOOD OLD DAYS
00:36:47.000 : en:CIVIL RIGHTS VIOLATIONS
00:42:51.000 : en:THE EXCHANGE
00:49:57.000 : en:SURVIVAL OF THE TRICKIEST
01:00:10.000 : en:FREE
01:04:47.000 : en:HIPPIE HEAVEN
01:11:00.000 : en:SUMMER OF LOVE
01:17:58.000 : en:FLOWER POWER
01:25:14.000 : en:ON THE LAM
01:34:20.000 : en:BLAZE OF GLORY
01:39:50.000 : en:SECOND CHANCE

Скриншоты

[Профиль] [ЛС]
Показать сообщения:    

Текущее время: Сегодня 13:59

Часовой пояс: GMT



Вы не можете начинать темы
Вы не можете отвечать на сообщения
Вы не можете редактировать свои сообщения
Вы не можете удалять свои сообщения
Вы не можете голосовать в опросах
Вы не можете прикреплять файлы к сообщениям
Вы не можете скачивать файлы