Флинтстоуны / The Flintstones (1994) BDRip от New-Team

 
Автор Сообщение

sergej644 ®

Пол:

Стаж: 4 года 11 месяцев

Сообщений: 6038

Откуда: Soviet Union



Награды: Нет

Торрент-статистика

Создавать темы 15-Янв-2015 17:02

[Цитировать]

--Флинтстоуны / The Flintstones- Страна: США
Год выпуска: 1994
Жанр: комедия, семейный
Продолжительность: 01:30:39
Перевод #1: Профессиональный (многоголосый закадровый) SDI Media Ольга
Перевод #2: Профессиональный (двухголосый закадровый) Премьер Видео Фильм
Cубтитры: нет
Режиссер: Брайан Левант / Brian Levant
В ролях: Джон Гудман, Элизабет Перкинс, Рик Морэнис, Рози О’Доннелл, Кайл МакЛоклен, Холли Берри, Элизабет Тейлор, Дэнн Флорек, Ирвин Кийес, Джонатан Уинтерс...
Описание: Двое закадычных друзей Фред Флинтстоун и Барни Раббл уже много лет работают на каменоломне в Бедроке. Однажды начальство каменоломни решает провести тест среди рабочих, дабы выявить способных работников, которых ждёт повышение, а остальных — просто-напросто уволить.
Фред уверен, что не пройдёт этот тест и совсем потерял надежду, однако его добрый друг Барни, жаждущий отблагодарить приятеля за всю помощь, которую тот ему оказывал, незаметно поменял ответы на тест Фреда на свои. После чего Фреда повысили на работе, а Барни уволили. И чем шикарнее со временем становилась жизнь семьи Флинтстоунов, тем меньше крепла дружба Фреда и Барни.

Качество: BDRip [BDRemux 1080p]
Формат: AVI
Видео кодек: XviD
Аудио кодек: AC3
Видео: 704x384 (1.83:1), 23.976 fps, XviD build 73 ~1915 kbps avg, 0.29 bit/pixel
Аудио #1: 48 kHz, AC3 Dolby Digital, 2/0 (L,R) ch, ~192 kbps | MVO
Аудио #2: 48 kHz, AC3 Dolby Digital, 2/0 (L,R) ch, ~192 kbps | DVO-Раздача от: -

Скриншоты

MI

D:Мои рипыFlintstones.1994.bdrip.dexter_lex.avi
General
Complete name : D:Мои рипыFlintstones.1994.bdrip.dexter_lex.avi
Format : AVI
Format/Info : Audio Video Interleave
File size : 1.47 GiB
Duration : 1h 30mn
Overall bit rate : 2 314 Kbps
Writing application : VirtualDubMod 1.5.10.3 | www.virtualdub-fr.org || (build 2550/release)
Writing library : VirtualDubMod build 2550/release
Video #0
ID : 0
Format : MPEG-4 Visual
Format profile : Advanced Simple@L5
Format settings, BVOP : 1
Format settings, QPel : No
Format settings, GMC : No warppoints
Format settings, Matrix : Custom
Codec ID : XVID
Codec ID/Hint : XviD
Duration : 1h 30mn
Bit rate : 1 916 Kbps
Width : 704 pixels
Height : 384 pixels
Display aspect ratio : 16:9
Frame rate : 23.976 fps
Color space : YUV
Chroma subsampling : 4:2:0
Bit depth : 8 bits
Scan type : Progressive
Compression mode : Lossy
Bits/(Pixel*Frame) : 0.296
Stream size : 1.21 GiB (83%)
Writing library : XviD 73
Audio #1
ID : 1
Format : AC-3
Format/Info : Audio Coding 3
Mode extension : CM (complete main)
Codec ID : 2000
Duration : 1h 30mn
Bit rate mode : Constant
Bit rate : 192 Kbps
Channel(s) : 2 channels
Channel positions : Front: L R
Sampling rate : 48.0 KHz
Bit depth : 16 bits
Compression mode : Lossy
Stream size : 124 MiB (8%)
Alignment : Split accross interleaves
Interleave, duration : 42 ms (1.00 video frame)
Interleave, preload duration : 500 ms
Audio #2
ID : 2
Format : AC-3
Format/Info : Audio Coding 3
Mode extension : CM (complete main)
Codec ID : 2000
Duration : 1h 30mn
Bit rate mode : Constant
Bit rate : 192 Kbps
Channel(s) : 2 channels
Channel positions : Front: L R
Sampling rate : 48.0 KHz
Bit depth : 16 bits
Compression mode : Lossy
Stream size : 124 MiB (8%)
Alignment : Split accross interleaves
Interleave, duration : 42 ms (1.00 video frame)
Interleave, preload duration : 500 ms
[Профиль] [ЛС]

Создавать темы 06-Авг-2015 22:48 (спустя 6 месяцев 22 дня)

Топик был перенесен из форума Фильмы до 2014 года в форум Фильмы до 2012 года
sergej644
 
Показать сообщения:    

Текущее время: Сегодня 04:15

Часовой пояс: GMT



Вы не можете начинать темы
Вы не можете отвечать на сообщения
Вы не можете редактировать свои сообщения
Вы не можете удалять свои сообщения
Вы не можете голосовать в опросах
Вы не можете прикреплять файлы к сообщениям
Вы не можете скачивать файлы