Флинтстоуны / The Flintstones (Брайан Левант / Brian Levant) [1994, США, комедия, семейный, HDTV 1080i] MVO (SDI Media) + DVO (Премьер Видео Фильм) + DVO (НТВ+) + 3х AVO (Гаврилов, Горчаков, Алексеев) + Sub Eng + Original Eng

 
Автор Сообщение

reversefile ®

Пол:

Стаж: 4 года 5 месяцев

Сообщений: 842

Откуда: ReverseFile.org



Награды: Нет

Торрент-статистика

Создавать темы 11-Авг-2014 10:40

[Цитировать]

Флинтстоуны / The Flintstones
Страна: США
Жанр: комедия, семейный
Год выпуска: 1994
Продолжительность: 01:26:47
Перевод 1: Профессиональный (многоголосый закадровый) SDI Media Ольга Вербицкая, Елена Сигова, Ольга Галямова, Родион Кузьмин, Анатолий Фечин, Михаил Карасиков.
Перевод 2: Профессиональный (двухголосый закадровый) Премьер Видео Фильм Любовь Германова, Вадим Андреев.
Перевод 3: Профессиональный (двухголосый закадровый) НТВ+ Ольга Голованова, Никита Прозоровский.
Перевод 4: Авторский (одноголосый закадровый) Андрей Гаврилов
Перевод 5: Авторский (одноголосый закадровый) Василий Горчаков
Перевод 6: Авторский (одноголосый закадровый) Антон Алексеев
Cубтитры: английские
Оригинальная аудиодорожка: английский
Режиссер: Брайан Левант / Brian Levant
В ролях: Джон Гудман, Элизабет Перкинс, Рик Морэнис, Рози О’Доннелл, Кайл МакЛоклен, Холли Берри, Элизабет Тейлор, Дэнн Флорек, Ирвин Кийес, Джонатан Уинтерс...
Описание: Двое закадычных друзей Фред Флинтстоун и Барни Раббл уже много лет работают на каменоломне в Бедроке. Однажды начальство каменоломни решает провести тест среди рабочих, дабы выявить способных работников, которых ждёт повышение, а остальных — просто-напросто уволить.
Фред уверен, что не пройдёт этот тест и совсем потерял надежду, однако его добрый друг Барни, жаждущий отблагодарить приятеля за всю помощь, которую тот ему оказывал, незаметно поменял ответы на тест Фреда на свои. После чего Фреда повысили на работе, а Барни уволили. И чем шикарнее со временем становилась жизнь семьи Флинтстоунов, тем меньше крепла дружба Фреда и Барни.
Доп. информация: за основу взята раздача от lizing48.
Сэмпл: http://multi-up.com/990095
Тип релиза: HDTV 1080i
Контейнер: MKV
Видео: 1920x1080 (16:9), 25 fps, AVC, ~11.4 Mbps, 0.110 bits/pixel
Аудио 1: Russian, 48.0 KHz, AC3, 2 ch, 192 Kbps - SDI Media
Аудио 2: Russian, 48.0 KHz, AC3, 2 ch, 192 Kbps - Премьер Видео Фильм
Аудио 3: Russian, 48.0 KHz, AC3, 2 ch, 192 Kbps - НТВ+
Аудио 4: Russian, 48.0 KHz, AC3, 2 ch, 192 Kbps - Андрей Гаврилов
Аудио 5: Russian, 48.0 KHz, AC3, 2 ch, 192 Kbps - Василий Горчаков
Аудио 6: Russian, 48.0 KHz, AC3, 1 ch, 128 Kbps - Антон Алексеев
Аудио 7: English, 48.0 KHz, AC3, 6 ch, 384 Kbps

Благодарности

lizing48 за видео
xfiles за запись перевода от SDI-Media
21Sepsis за оцифровку VHS с переводом Алексеева
JeRrS1989 за перевод Горчакова
oven 2005y за перевод Гаврилова
DeVil_N за перевод НТВ+

MediaInfo

General
Unique ID : 215964621321529254629202319078127544721 (0xA27945EABE1D3AE18B12E69C3387A991)
Complete name : C:\The Flintstones.mkv
Format : Matroska
Format version : Version 4 / Version 2
File size : 7.99 GiB
Duration : 1h 26mn
Overall bit rate mode : Variable
Overall bit rate : 13.2 Mbps
Encoded date : UTC 2014-08-02 09:56:47
Writing application : mkvmerge v7.1.0 ('Good Love') 64bit built on Jul 27 2014 13:06:55
Writing library : libebml v1.3.0 + libmatroska v1.4.1
DURATION : 01:26:47.360000000
NUMBER_OF_FRAMES : 162730
NUMBER_OF_BYTES : 124976640
_STATISTICS_WRITING_APP : mkvmerge v7.1.0 ('Good Love') 64bit built on Jul 27 2014 13:06:55
_STATISTICS_WRITING_DATE_UTC : 2014-08-02 09:56:47
_STATISTICS_TAGS : BPS DURATION NUMBER_OF_FRAMES NUMBER_OF_BYTES
Video
ID : 1
Format : AVC
Format/Info : Advanced Video Codec
Format profile : Main@L4.0
Format settings, CABAC : Yes
Format settings, ReFrames : 4 frames
Format settings, GOP : M=4, N=13
Codec ID : V_MPEG4/ISO/AVC
Duration : 1h 26mn
Bit rate mode : Variable
Bit rate : 11.4 Mbps
Maximum bit rate : 40.0 Mbps
Width : 1 920 pixels
Height : 1 080 pixels
Display aspect ratio : 16:9
Frame rate mode : Constant
Frame rate : 25.000 fps
Color space : YUV
Chroma subsampling : 4:2:0
Bit depth : 8 bits
Scan type : Interlaced
Scan order : Top Field First
Bits/(Pixel*Frame) : 0.221
Stream size : 6.94 GiB (87%)
Default : Yes
Forced : No
Color primaries : BT.709
Transfer characteristics : BT.709
Matrix coefficients : BT.709
Audio #1
ID : 2
Format : AC-3
Format/Info : Audio Coding 3
Mode extension : CM (complete main)
Format settings, Endianness : Big
Codec ID : A_AC3
Duration : 1h 26mn
Bit rate mode : Constant
Bit rate : 192 Kbps
Channel(s) : 2 channels
Channel positions : Front: L R
Sampling rate : 48.0 KHz
Bit depth : 16 bits
Compression mode : Lossy
Stream size : 119 MiB (1%)
Title : SDI Media
Language : Russian
Default : Yes
Forced : No
Audio #2
ID : 3
Format : AC-3
Format/Info : Audio Coding 3
Mode extension : CM (complete main)
Format settings, Endianness : Big
Codec ID : A_AC3
Duration : 1h 26mn
Bit rate mode : Constant
Bit rate : 192 Kbps
Channel(s) : 2 channels
Channel positions : Front: L R
Sampling rate : 48.0 KHz
Bit depth : 16 bits
Compression mode : Lossy
Stream size : 119 MiB (1%)
Title : Премьер Видео Фильм
Language : Russian
Default : No
Forced : No
Audio #3
ID : 4
Format : AC-3
Format/Info : Audio Coding 3
Mode extension : CM (complete main)
Format settings, Endianness : Big
Codec ID : A_AC3
Duration : 1h 26mn
Bit rate mode : Constant
Bit rate : 192 Kbps
Channel(s) : 2 channels
Channel positions : Front: L R
Sampling rate : 48.0 KHz
Bit depth : 16 bits
Compression mode : Lossy
Stream size : 119 MiB (1%)
Title : НТВ+
Language : Russian
Default : No
Forced : No
Audio #4
ID : 5
Format : AC-3
Format/Info : Audio Coding 3
Mode extension : CM (complete main)
Format settings, Endianness : Big
Codec ID : A_AC3
Duration : 1h 26mn
Bit rate mode : Constant
Bit rate : 192 Kbps
Channel(s) : 2 channels
Channel positions : Front: L R
Sampling rate : 48.0 KHz
Bit depth : 16 bits
Compression mode : Lossy
Stream size : 119 MiB (1%)
Title : Андрей Гаврилов
Language : Russian
Default : No
Forced : No
Audio #5
ID : 6
Format : AC-3
Format/Info : Audio Coding 3
Mode extension : CM (complete main)
Format settings, Endianness : Big
Codec ID : A_AC3
Duration : 1h 26mn
Bit rate mode : Constant
Bit rate : 192 Kbps
Channel(s) : 2 channels
Channel positions : Front: L R
Sampling rate : 48.0 KHz
Bit depth : 16 bits
Compression mode : Lossy
Stream size : 119 MiB (1%)
Title : Василий Горчаков
Language : Russian
Default : No
Forced : No
Audio #6
ID : 7
Format : AC-3
Format/Info : Audio Coding 3
Mode extension : CM (complete main)
Format settings, Endianness : Big
Codec ID : A_AC3
Duration : 1h 26mn
Bit rate mode : Constant
Bit rate : 128 Kbps
Channel(s) : 1 channel
Channel positions : Front: C
Sampling rate : 48.0 KHz
Bit depth : 16 bits
Compression mode : Lossy
Stream size : 79.5 MiB (1%)
Title : Антон Алексеев
Language : Russian
Default : No
Forced : No
Audio #7
ID : 8
Format : AC-3
Format/Info : Audio Coding 3
Mode extension : CM (complete main)
Format settings, Endianness : Big
Codec ID : A_AC3
Duration : 1h 26mn
Bit rate mode : Constant
Bit rate : 384 Kbps
Channel(s) : 6 channels
Channel positions : Front: L C R, Side: L R, LFE
Sampling rate : 48.0 KHz
Bit depth : 16 bits
Compression mode : Lossy
Stream size : 238 MiB (3%)
Language : English
Default : No
Forced : No
Text
ID : 9
Format : UTF-8
Codec ID : S_TEXT/UTF8
Codec ID/Info : UTF-8 Plain Text
Language : English
Default : No
Forced : No
Menu
00:00:00.000 : :Chapter 01
00:07:55.800 : :Chapter 02
00:17:09.000 : :Chapter 03
00:25:20.400 : :Chapter 04
00:30:57.600 : :Chapter 05
00:37:25.800 : :Chapter 06
00:43:44.400 : :Chapter 07
00:50:15.000 : :Chapter 08
00:58:59.400 : :Chapter 09
01:06:48.600 : :Chapter 10
01:13:52.800 : :Chapter 11
01:21:36.600 : :Chapter 12

Скриншоты

[Профиль] [ЛС]
Показать сообщения:    

Текущее время: Сегодня 18:12

Часовой пояс: GMT



Вы не можете начинать темы
Вы не можете отвечать на сообщения
Вы не можете редактировать свои сообщения
Вы не можете удалять свои сообщения
Вы не можете голосовать в опросах
Вы не можете прикреплять файлы к сообщениям
Вы не можете скачивать файлы