Флетч / Fletch (1985) BDRip 720p | D, A

 
Автор Сообщение

Russian Mafia ®

Пол:

Стаж: 1 год 8 месяцев

Сообщений: 4257



Награды: 10 (Подробнее)

Top Releaser 4 (Количество: 1) Top Releaser 5 (Количество: 1) Mega Seeder 3 (Количество: 1)
Торрент-статистика

Создавать темы 03-Окт-2015 07:13

[Цитировать]


Оригинальное название: Fletch
Название: Флетч
Жанр: Комедия, детектив
Сценарист: Эндрю Бергман
Режиссёр: Майкл Ритчи
Год: 1985
В ролях: Чеви Чейз, Джо Дон Бейкер, Дана Уилер-Николсон, Ричард Либертини, Тим Мэтисон, М. Эммет Уолш, Джордж Уэндт, Кеннет Марс, Джина Дэвис, Билл Хендерсон, Уильям Трейлор, Джордж Уайнер, Тони Лонго, Ларри Флэш Дженкинс, Ральф Сеймур, Карим Абдул-Джаббар, Джеймс Эйвери, Рейд Крикшенкс, Брюс Френч, Бертон Гиллиам, Чик Хирн, Элисон Ла Плака, Джо Прамл, Уильям Сэндерсон, Пенни Сантон, Бо Старр, Пегги Дойл, Дэвид В. Харпер, Рик Гарсиа, Фриман Кинг, Лорейн Шилдс, Билл Сорреллс, Арнольд Ф. Тернер, Роберт Сорреллс, Дональд Чаффин, Дэррен Даблин, Ирен Ольга Лопес, Грэйс Гейнор, Терренс Эванс

.. Этого безумного парня друзья зовут просто Флетч, и он - великий мастер перевоплощения и прирожденный хамелеон. Его журналистские расследования - всегда головокружительные авантюры и удивительные приключения.
Как-то раз, готовя очерк о торговле наркотиками, Флетч переодевшись бомжом, отправляется собирать информацию. Но вместо информации, Флетч получает совершенно невероятное предложение.
Страна: США
Студия: Universal Pictures, Vincent Pictures
Продолжительность: 01:38
Перевод: Дублированный, авторский одноголосый закадровый ( Гаврилов, Володарский )
Контейнер: MKV
Кодек: MPEG-4 AVC
Качество: BDRip
Видео: 4856 Кбит/с, 1280x692, 23.976 кадр/с
Звук: Русский (AC3, 2 ch, 192 Кбит/с), (AC3, 6 ch, 320 Кбит/с), (AC3, 1 ch, 192 Кбит/с), английский (DTS, 6 ch, 1510 Кбит/с)
Субтитры: Без субтитров
-

Mediainfo:

Общее
Уникальный идентификатор : 197789799447633107801277834984891651253 (0x94CCEE03C599A62286BC88711A6894B5)
Полное имя : Флетч Fletch (1985) BDRip 720pFletsh.1985.x264.BDRip.720p.mkv
Формат : Matroska
Версия формата : Version 2
Размер файла : 4,85 Гбайт
Продолжительность : 1 ч. 38 м.
Общий поток : 7071 Кбит/сек
Название фильма : Fletch (1985) - Release for HDClub
Дата кодирования : UTC 2009-06-15 08:57:33
Программа кодирования : mkvmerge v2.9.0 ('Moanin'') built on May 22 2009 17:46:31
Библиотека кодирования : libebml v0.7.7 + libmatroska v0.8.1
Видео
Идентификатор : 1
Формат : AVC
Формат/Информация : Advanced Video Codec
Профиль формата : Main@L3.1
Параметр CABAC формата : Да
Параметр ReFrames формата : 5 кадров
Идентификатор кодека : V_MPEG4/ISO/AVC
Продолжительность : 1 ч. 38 м.
Битрейт : 4856 Кбит/сек
Ширина : 1280 пикселей
Высота : 692 пикселя
Соотношение сторон : 1,85:1
Режим частоты кадров : Постоянный
Частота кадров : 23,976 кадра/сек
Цветовое пространство : YUV
Субдискретизация насыщенности : 4:2:0
Битовая глубина : 8 бит
Тип развёртки : Прогрессивная
Бит/(Пиксели*Кадры) : 0.229
Размер потока : 3,24 Гбайт (67%)
Заголовок : Release for HDClub
Библиотека кодирования : x264 core 67 r1162M f7bfcfa
Настройки программы : cabac=1 / ref=5 / deblock=1:-3:-3 / analyse=0x1:0x111 / me=umh / subme=9 / psy_rd=1.1:0.1 / mixed_ref=1 / me_range=16 / chroma_me=1 / trellis=2 / 8x8dct=0 / cqm=0 / deadzone=21,11 / chroma_qp_offset=-3 / threads=12 / nr=0 / decimate=1 / mbaff=0 / bframes=4 / b_pyramid=1 / b_adapt=2 / b_bias=0 / direct=3 / wpredb=1 / keyint=250 / keyint_min=25 / scenecut=40 / rc=2pass / bitrate=4856 / ratetol=1.0 / qcomp=0.60 / qpmin=10 / qpmax=51 / qpstep=4 / cplxblur=20.0 / qblur=0.5 / ip_ratio=1.40 / pb_ratio=1.30 / aq=1:1.00
Язык : English
Default : Да
Forced : Нет
Аудио #1
Идентификатор : 2
Формат : AC-3
Формат/Информация : Audio Coding 3
Расширение режима : CM (complete main)
Параметр Endianness формата : Big
Идентификатор кодека : A_AC3
Продолжительность : 1 ч. 38 м.
Вид битрейта : Постоянный
Битрейт : 192 Кбит/сек
Каналы : 2 канала
Расположение каналов : Front: L R
Частота : 48,0 КГц
Битовая глубина : 16 бит
Метод сжатия : С потерями
Задержка видео : 10 мс.
Размер потока : 135 Мбайт (3%)
Заголовок : AC3 2.0 @ 192 Дубляж
Язык : Russian
Default : Да
Forced : Нет
Аудио #2
Идентификатор : 3
Формат : AC-3
Формат/Информация : Audio Coding 3
Расширение режима : CM (complete main)
Параметр Endianness формата : Big
Идентификатор кодека : A_AC3
Продолжительность : 1 ч. 38 м.
Вид битрейта : Постоянный
Битрейт : 320 Кбит/сек
Каналы : 6 каналов
Расположение каналов : Front: L C R, Side: L R, LFE
Частота : 48,0 КГц
Битовая глубина : 16 бит
Метод сжатия : С потерями
Задержка видео : 1 с. 735 мс.
Размер потока : 225 Мбайт (5%)
Заголовок : АС3 5.1 @ 320 Одноголосый закадровый - Гаврилов
Язык : Russian
Default : Нет
Forced : Нет
Аудио #3
Идентификатор : 4
Формат : AC-3
Формат/Информация : Audio Coding 3
Расширение режима : CM (complete main)
Параметр Endianness формата : Big
Идентификатор кодека : A_AC3
Продолжительность : 1 ч. 38 м.
Вид битрейта : Постоянный
Битрейт : 192 Кбит/сек
Каналы : 1 канал
Расположение каналов : Front: C
Частота : 48,0 КГц
Битовая глубина : 16 бит
Метод сжатия : С потерями
Задержка видео : 1 с. 712 мс.
Размер потока : 135 Мбайт (3%)
Заголовок : АС3 1.0 @ 192 Одноголосый закадровый - Володарский
Язык : Russian
Default : Нет
Forced : Нет
Аудио #4
Идентификатор : 5
Формат : DTS
Формат/Информация : Digital Theater Systems
Режим : 16
Параметр Endianness формата : Big
Идентификатор кодека : A_DTS
Продолжительность : 1 ч. 38 м.
Вид битрейта : Постоянный
Битрейт : 1509 Кбит/сек
Каналы : 6 каналов
Расположение каналов : Front: L C R, Side: L R, LFE
Частота : 48,0 КГц
Битовая глубина : 24 бит
Метод сжатия : С потерями
Размер потока : 1,04 Гбайт (21%)
Заголовок : DTS 5.1 @ 1536
Язык : English
Default : Нет
Forced : Нет
Скрытый текстАвтор раздачи - не является автором рипа, а лишь скопировал его ( рип ) в сети, и передал Вам - как есть

...из книги «3500 кинорецензий»

Тайный репортёр Эрвин Флетчер по прозвищу Флетч из Лос-Анджелеса внедряется в среду наркоманов и торговцев наркотиками, чтобы выяснить связь полиции с преступным бизнесом. Рассказывающую об этом в жанре авантюрно-криминальной комедии ленту Майкла Ритчи можно считать «белым» вариантом успешного комедийного боевика «Полицейский из Беверли-Хиллз», где действовал хитроумный чернокожий коп. Вот и Флетча, глуповатого героя Чеви Чейза, американские критики не без иронии назвали «умной задницей», как и полицейского Алекса Фули. А исполнитель роли Фули, грубоватый по юмору Эдди Мёрфи, снялся, между прочим, в следующей картине Ритчи «Золотой ребёнок», которая не уступает «Флетчу» по идиотским выходкам и несуразностям.
Правда, Мёрфи явно талантливее Чейза и пользовался тогда большей популярностью у зрителей, что подтвердили и результаты кинопроката (у «Флетча» в полтора с лишним раза меньше доходы, нежели у «Золотого ребёнка», не говоря уже о «Полицейском из Беверли-Хиллз»). Но это не помешало Майклу Ритчи через три года возродить Флетча к жизни в новой серии, которая так и называлась — «Флетч жив», однако её кассовые сборы сократились ещё на треть. А ныне, уже после смерти Ритчи, продюсеры вдруг решили, что неплохо бы выпустить третью часть. Но насколько вообще нужен этот самый Флетч спустя двадцать с лишним лет после своего первого появления на экране?!
- --
[Профиль] [ЛС]
Кто просматривает тему:

Форум Тема Автор Размер
BBC BBC: Бессмертный Египет с Джоанн Флетчер (История Египта) / Immortal Egypt with Joann Fletcher (The Story of Egypt) [серии 1-4 из 4] (Ian A. Hunt) [2015 г., Документальный, история, исследования,... skorpionN 7.22 GB
Фантастика и фэнтези Колодец Единорога (Прэтт Флетчер) [2015, Фэнтези, аудиокнига, MP3, 192 kbps, lainer007] Magnat 913 MB
Фильмы 2015 года Красотки в бегах / Hot Pursuit (Энн Флетчер / Anne Fletcher) [2015, США, Боевик, Комедия, HDRip] Dub (iTunes) TorrentFilm 1.37 GB
Фильмы 2015 года Красотки в бегах / Hot Pursuit (Энн Флетчер / Anne Fletcher) [2015, США, боевик, комедия, криминал, BDRip-AVC] Dub + Sub (rus, eng, ukr) + Original (Eng) TorrentFilm 2.13 GB
Фильмы 2015 года Красотки в бегах / Hot Pursuit (Энн Флетчер / Anne Fletcher) [2015, США, Боевик, комедия, криминал, BDRip] Dub + Original (Eng) + Subs (Rus, Ukr, Eng) TorrentFilm 1.46 GB
Фильмы 2015 года Красотки в бегах / Hot Pursuit (Энн Флетчер / Anne Fletcher) [2015, США, боевик, комедия, криминал, HDRip] Dub TorrentFilm 745 MB
Фильмы 2015 года Красотки в бегах / Hot Pursuit (Энн Флетчер / Anne Fletcher) [2015, США, Комедия, BDRip-AVC] Dub + Sub Rus,Eng + Original Eng TorrentFilm 2.65 GB
Документальные HD Норфолк Саузерн. Издание 1 флота наследия / Norfolk Southern\'s. Heritage Fleet Vol. 1 (Эндрю Флетчер) [2013, Документальный, релаксация, видовой, BDRip 1080p] TorrentFilm 22.08 GB
Показать сообщения:    

Текущее время: Сегодня 11:07

Часовой пояс: GMT



Вы не можете начинать темы
Вы не можете отвечать на сообщения
Вы не можете редактировать свои сообщения
Вы не можете удалять свои сообщения
Вы не можете голосовать в опросах
Вы не можете прикреплять файлы к сообщениям
Вы не можете скачивать файлы