Фландрия / Flandres (2006) BDRip 720p от Deadmauvlad | P

 
Автор Сообщение

sergej644 ®

Пол:

Стаж: 4 года 11 месяцев

Сообщений: 6038

Откуда: Soviet Union



Награды: Нет

Торрент-статистика

Создавать темы 13-Фев-2015 22:15

[Цитировать]

Информация о фильме
Название: Фландрия
Оригинальное название: Flandres
Год выхода: 2006
Жанр: Драма, военный
Режиссер: Бруно Дюмон
В ролях: Аделаид Леру, Самюэль Буаден, Энри Кретель, Jean-Marie Bruveart, Дэвид Пулен, Патрис Венант
О фильме:
Фландрия. Деместр делит время между работой на ферме и прогулками со своей подругой детства Барб. Он тайно влюблен в нее и с благодарностью принимает то немногое, что она может ему дать. Как и многие его сверстники, Деместр уходит на войну, которая происходит где-то вдали от его дома. Жестокость, страх, а также чувство локтя превращают его в настоящего воина. Сменяют друг друга времена года, а Барб угасает в одиночестве, по-прежнему ожидая возвращения солдат. Убережет ли Деместра его любовь к Барб?

Страна: Франция
Продолжительность: 01:31:42
Перевод: Профессиональный (многоголосый) [Лицензия *]
Файл
Кодек: XviD
Качество: BDRip 720p [EA]
Видео: AVC, 10022 КБ/с 1280x546 (2.35:1), 23.976 fps
Аудио #1: AC-3, 48.0 KHz, 2 ch, 192 Kbps, CBR (Russian)
Аудио #2: AC-3, 48.0 KHz, 6 ch, 640 Kbps, CBR (French)
Аудио #3: AAC HE-AAC / LC, 48.0 KHz / 24.0 KHz, 2 ch (French)
Субтитры: English, French
Размер 6,78 ГБ 1 DVD9

MI

Общее
Уникальный идентификатор : 228426078206289813758659622631442251458 (0xABD9432D47449D0188F978286E247EC2)
Полное имя : C:UsersEsiRVideosготовоеFlandres.2006.BDRip 720p Deadmauvlad.mkv
Формат : Matroska
Версия формата : Version 4 / Version 2
Размер файла : 6,79 Гбайт
Продолжительность : 1 ч. 31 м.
Общий поток : 10,6 Мбит/сек
Название фильма : Flandres (2006) BDRip 720p Deadmauvlad
Дата кодирования : UTC 2015-02-11 12:24:19
Программа кодирования : mkvmerge v6.1.0 ('Old Devil') built on Mar 4 2013 09:10:42
Библиотека кодирования : libebml v1.3.0 + libmatroska v1.4.0
DURATION : 01:30:44.272000000
NUMBER_OF_FRAMES : 1152
NUMBER_OF_BYTES : 2189490
_STATISTICS_WRITING_APP : mkvmerge v7.5.0 ('Glass Culture') 64bit built on Jan 4 2015 16:48:44
_STATISTICS_WRITING_DATE_UTC : 2015-01-16 13:52:26
_STATISTICS_TAGS : BPS DURATION NUMBER_OF_FRAMES NUMBER_OF_BYTES
Видео
Идентификатор : 1
Формат : AVC
Формат/Информация : Advanced Video Codec
Профиль формата : High@L4.1
Параметр CABAC формата : Да
Параметр ReFrames формата : 11 кадров
Идентификатор кодека : V_MPEG4/ISO/AVC
Продолжительность : 1 ч. 31 м.
Ширина : 1280 пикселей
Высота : 546 пикселей
Соотношение сторон : 2,35:1
Режим частоты кадров : Постоянный
Частота кадров : 23,976 кадра/сек
Цветовое пространство : YUV
Субдискретизация насыщенности : 4:2:0
Битовая глубина : 8 бит
Тип развёртки : Прогрессивная
Заголовок : Encode - EA Reliz Deadmauvlad
Библиотека кодирования : x264 core 144 r0+2574 9abcd72 t_mod_Custom [8-bit@all X86_64]
Настройки программы : cabac=1 / ref=11 / deblock=1:-3:-3 / analyse=0x3:0x113 / me=umh / subme=10 / psy=1 / fade_compensate=0.00 / psy_rd=1.10:0.00 / mixed_ref=1 / me_range=32 / chroma_me=1 / trellis=2 / 8x8dct=1 / cqm=0 / deadzone=21,11 / fast_pskip=0 / chroma_qp_offset=-2 / threads=12 / lookahead_threads=3 / sliced_threads=0 / nr=0 / decimate=0 / interlaced=0 / bluray_compat=0 / constrained_intra=0 / fgo=0 / bframes=10 / b_pyramid=2 / b_adapt=2 / b_bias=0 / direct=3 / weightb=1 / open_gop=0 / weightp=2 / keyint=240 / keyint_min=23 / scenecut=40 / intra_refresh=0 / rc_lookahead=50 / rc=crf / mbtree=0 / crf=15.2000 / qcomp=0.75 / qpmin=0:0:0 / qpmax=69:69:69 / qpstep=4 / vbv_maxrate=62500 / vbv_bufsize=78125 / crf_max=0.0 / nal_hrd=none / filler=0 / ip_ratio=1.20 / pb_ratio=1.10 / aq=1:0.65 / aq-sensitivity=10.00 / aq-factor=1.00:1.00:1.00 / aq2=1:0.55 / aq2-sensitivity=15.00 / aq2-factor=1.00:1.00:1.00 / aq3=0
Язык : French
Default : Да
Forced : Нет
Основные цвета : BT.709
Характеристики трансфера : BT.709
Коэффициенты матрицы : BT.709
DURATION : 01:31:42.497000000
NUMBER_OF_FRAMES : 131928
NUMBER_OF_BYTES : 6667740776
_STATISTICS_WRITING_APP : mkvmerge v7.5.0 ('Glass Culture') 64bit built on Jan 4 2015 16:48:44
_STATISTICS_WRITING_DATE_UTC : 2015-01-16 13:52:26
_STATISTICS_TAGS : BPS DURATION NUMBER_OF_FRAMES NUMBER_OF_BYTES
Аудио #1
Идентификатор : 2
Формат : AC-3
Формат/Информация : Audio Coding 3
Расширение режима : CM (complete main)
Параметр Endianness формата : Big
Идентификатор кодека : A_AC3
Продолжительность : 1 ч. 31 м.
Вид битрейта : Постоянный
Битрейт : 192 Кбит/сек
Каналы : 2 канала
Расположение каналов : Front: L R
Частота : 48,0 КГц
Битовая глубина : 16 бит
Метод сжатия : С потерями
Размер потока : 126 Мбайт (2%)
Заголовок : MVO [R5]
Язык : Russian
Default : Да
Forced : Да
Аудио #2
Идентификатор : 3
Формат : AC-3
Формат/Информация : Audio Coding 3
Расширение режима : CM (complete main)
Параметр Endianness формата : Big
Идентификатор кодека : A_AC3
Продолжительность : 1 ч. 31 м.
Вид битрейта : Постоянный
Битрейт : 640 Кбит/сек
Каналы : 6 каналов
Расположение каналов : Front: L C R, Side: L R, LFE
Частота : 48,0 КГц
Битовая глубина : 16 бит
Метод сжатия : С потерями
Размер потока : 420 Мбайт (6%)
Заголовок : Оригинал
Язык : French
Default : Нет
Forced : Да
Аудио #3
Идентификатор : 4
Формат : AAC
Формат/Информация : Advanced Audio Codec
Профиль формата : HE-AAC / LC
Идентификатор кодека : A_AAC
Продолжительность : 1 ч. 31 м.
Каналы : 2 канала
Расположение каналов : Front: L R
Частота : 48,0 КГц / 24,0 КГц
Метод сжатия : С потерями
Задержка видео : 31 мс.
Заголовок : Commentary with Bruno Dumont
Язык : French
Default : Нет
Forced : Нет
Текст #1
Идентификатор : 5
Формат : UTF-8
Идентификатор кодека : S_TEXT/UTF8
Идентификатор кодека/Информация : UTF-8 Plain Text
Заголовок : srt (from SODA/UK PAL DVD)
Язык : English
Default : Да
Forced : Да
Текст #2
Идентификатор : 6
Формат : PGS
Режим смешивания : zlib
Идентификатор кодека : S_HDMV/PGS
Идентификатор кодека/Информация : The same subtitle format used on BDs/HD-DVDs
Заголовок : sup HoH
Язык : French
Default : Нет
Forced : Нет
Меню #1
00:00:00.000 : en:00:00:00.000
00:13:51.622 : en:00:13:51.622
00:25:52.760 : en:00:25:52.760
00:36:50.875 : en:00:36:50.875
00:48:47.800 : en:00:48:47.800
00:59:26.062 : en:00:59:26.062
01:09:05.558 : en:01:09:05.558
01:18:53.771 : en:01:18:53.771
01:28:33.391 : en:01:28:33.391
Меню #2
00:00:00.097 : en:00:00:00.097

AVC Log

x264 [info]: frame I: 726 Avg QP:14.64 size:144768
x264 [info]: frame P: 27083 Avg QP:15.79 size: 71334
x264 [info]: frame B:104119 Avg QP:16.42 size: 44475
x264 [info]: consecutive B-frames: 1.8% 2.3% 5.2% 15.4% 17.2% 43.0% 6.6% 3.3% 2.5% 1.3% 1.4%
Encoded 131928 frames, 8.283 fps, 9694.13 kb/s, 6358.9 MB

Скриншоты

[Профиль] [ЛС]
Кто просматривает тему:

Показать сообщения:    

Текущее время: Сегодня 14:35

Часовой пояс: GMT



Вы не можете начинать темы
Вы не можете отвечать на сообщения
Вы не можете редактировать свои сообщения
Вы не можете удалять свои сообщения
Вы не можете голосовать в опросах
Вы не можете прикреплять файлы к сообщениям
Вы не можете скачивать файлы