Флаги наших отцов / Flags of Our Fathers (Клинт Иствуд / Clint Eastwood) [2006, США, Драма, военный, история, BDRip] MVO (Пифагор) + DVO (Гланц и Королева)

 
Автор Сообщение

TorrentFilm ®

Пол:

Стаж: 2 года

Сообщений: 7741



Награды: Нет

Торрент-статистика

Создавать темы 07-Фев-2015 00:01

[Цитировать]

Флаги наших отцов / Flags of Our Fathers- Год выпуска: 2006
Выпущено: США / Warner Bros. Pictures
Жанр: драма, военный, история
Продолжительность: 02:11:53
Перевод (1): Профессиональный (многоголосый закадровый) R5 / Студия "Пифагор"
Перевод (2): Профессиональный (двухголосый закадровый) П. Гланц и И. Королева
Cубтитры: нет-Режиссер:
Клинт Иствуд / Clint Eastwood-В ролях:
Райан Филипп (John «Doc» Bradley), Джесси Брэдфорд (Rene Gagnon), Адам Бич (Ira Hayes), Джон Бенжамин Хикки (Keyes Beech), Джон Слэттери (Bud Gerber), Барри Пеппер (Mike Strank), Джейми Белл (Ralph «Iggy» Ignatowski), Пол Уокер (Hank Hansen), Роберт Патрик (Colonel Chandler Johnson), Нил МакДонаф (Captain Severance)-Описание:
История жизни шести американских пехотинцев, водрузивших флаг на вершине горы Сурибачи во время битвы при Иводзиме. Операция по овладению островом Иводзима стала переломным моментом в ходе Тихоокеанской кампании США против Японии весной 1945 года…-Релиз групп | | IMDB | КиноПоиск | Сэмпл |-Качество: BDRip [Blu-Ray Disc]
Формат: AVI
Видео: 704x288 (2.44:1), 23.976 fps, XviD build 73 ~1315 kbps avg, 0.27 bit/pixel
Аудио #1: 48 kHz, MPEG Layer 3, 2 ch, ~128.00 kbps avg (MVO) R5 / Студия "Пифагор"
Аудио #2: 48 kHz, MPEG Layer 3, 2 ch, ~128.00 kbps avg (DVO) Гланц и Королева
-

Скриншоты

MediaInfo

General
Complete name                            : D:\Flagi_nashih_otcov_2006_BDRip_by_Dalemake.avi
Format                                   : AVI
Format/Info                              : Audio Video Interleave
File size                                : 1.46 GiB
Duration                                 : 2h 11mn
Overall bit rate                         : 1 586 Kbps
Writing application                      : VirtualDubMod 1.5.10.3 | www.virtualdub-fr.org || (build 2550/release)
Writing library                          : VirtualDubMod build 2550/release
Video
ID                                       : 0
Format                                   : MPEG-4 Visual
Format profile                           : Advanced Simple@L5
Format settings, BVOP                    : 1
Format settings, QPel                    : No
Format settings, GMC                     : No warppoints
Format settings, Matrix                  : Custom
Codec ID                                 : XVID
Codec ID/Hint                            : XviD
Duration                                 : 2h 11mn
Bit rate                                 : 1 316 Kbps
Width                                    : 704 pixels
Height                                   : 288 pixels
Display aspect ratio                     : 2.40:1
Frame rate                               : 23.976 fps
Color space                              : YUV
Chroma subsampling                       : 4:2:0
Bit depth                                : 8 bits
Scan type                                : Progressive
Compression mode                         : Lossy
Bits/(Pixel*Frame)                       : 0.271
Stream size                              : 1.21 GiB (83%)
Writing library                          : XviD 73
Audio #1
ID                                       : 1
Format                                   : MPEG Audio
Format version                           : Version 1
Format profile                           : Layer 3
Codec ID                                 : 55
Codec ID/Hint                            : MP3
Duration                                 : 2h 11mn
Bit rate mode                            : Constant
Bit rate                                 : 128 Kbps
Channel(s)                               : 2 channels
Sampling rate                            : 48.0 KHz
Compression mode                         : Lossy
Stream size                              : 121 MiB (8%)
Alignment                                : Aligned on interleaves
Interleave, duration                     : 42 ms (1.00 video frame)
Interleave, preload duration             : 504 ms
Writing library                          : LAME3.99r
Encoding settings                        : -m s -V 4 -q 2 -lowpass 17 -b 128
Audio #2
ID                                       : 2
Format                                   : MPEG Audio
Format version                           : Version 1
Format profile                           : Layer 3
Codec ID                                 : 55
Codec ID/Hint                            : MP3
Duration                                 : 2h 11mn
Bit rate mode                            : Constant
Bit rate                                 : 128 Kbps
Channel(s)                               : 2 channels
Sampling rate                            : 48.0 KHz
Compression mode                         : Lossy
Stream size                              : 121 MiB (8%)
Alignment                                : Aligned on interleaves
Interleave, duration                     : 42 ms (1.00 video frame)
Interleave, preload duration             : 504 ms
Writing library                          : LAME3.99r
Encoding settings                        : -m s -V 4 -q 2 -lowpass 17 -b 128
-
[Профиль] [ЛС]

Создавать темы 06-Авг-2015 22:47 (спустя 5 месяцев 27 дней)

Топик был перенесен из форума Фильмы до 2014 года в форум Фильмы до 2012 года
sergej644
 
Показать сообщения:    

Текущее время: Сегодня 14:35

Часовой пояс: GMT



Вы не можете начинать темы
Вы не можете отвечать на сообщения
Вы не можете редактировать свои сообщения
Вы не можете удалять свои сообщения
Вы не можете голосовать в опросах
Вы не можете прикреплять файлы к сообщениям
Вы не можете скачивать файлы