Финансовый монстр / Money Monster (2016) BDRemux 1080p | iTunes

 
Автор Сообщение

достали все ®

Пол:

Стаж: 1 год 8 месяцев

Сообщений: 6563



Награды: 12 (Подробнее)

Mega Seeder 5 (Количество: 1) Mega Releaser 1 (Количество: 1) Top Releaser 3 (Количество: 1)
Торрент-статистика

Создавать темы 18-Авг-2016 03:22

[Цитировать]

Информация о фильме
Название: Финансовый монстр
Оригинальное название: Money Monster
Год выхода: 2016
Жанр: Триллер, драма, криминал
Режиссер: Джоди Фостер
В ролях: Джордж Клуни, Джулия Робертс, Джек О`Коннелл, Доминик Уэст, Катрина Балф, Джанкарло Эспозито, Кристофер Денэм, Ленни Венито, Кристофер Бауэр, Дэннис Буцикарис
О фильме:
Во время трансляции рейтингового реалити-шоу «Финансовый монстр» в студию врывается неизвестный и берет ведущего в заложники. Несмотря на чрезвычайную ситуацию, программа не прерывается – ведь шоу должно продолжаться! Постепенно то, что начиналось как мрачная драма, превращается в самый успешный и скандальный выпуск реалити-шоу за всю его историю.

Страна: США
Студия: Allegiance Theater, LStar Capital, Smoke House, TriStar Pictures
Продолжительность: 01:38:07
Перевод: Дублированный | iTunes
Файл
Кодек: x264
Качество: BDRemux 1080p
Видео: 1920x1080, 24.9 Mbit/s, 23.976 fps
Звук:
Аудио #01: 48 kHz, AC3, 5.1, 384 Kbps | Дублированный, iTunes |
Аудио #02: 48 kHz, DTS-HD MA, 5.1, 2105 kbps | Оригинал |
Субтитры: Английские

MI

General
Unique ID : 175707010073329936323973826525443544569 (0x842FF070526E0F9397E8FCA9771655F9)
Complete name : G:VideoMoney.Monster.2016.D.BDREMUX.1080p.ExKinoRay.mkv
Format : Matroska
Format version : Version 4 / Version 2
File size : 18.9 GiB
Duration : 1 h 38 min
Overall bit rate mode : Variable
Overall bit rate : 27.4 Mb/s
Movie name : Money.Monster.2016.D.BDREMUX.1080p.ExKinoRay
Encoded date : UTC 2016-08-17 23:41:48
Writing application : mkvmerge v8.3.0 ('Over the Horizon') 64bit
Writing library : libebml v1.3.1 + libmatroska v1.4.2
Video
ID : 1
Format : AVC
Format/Info : Advanced Video Codec
Format profile : High@L4.1
Format settings, CABAC : Yes
Format settings, ReFrames : 2 frames
Format settings, GOP : M=1, N=10
Codec ID : V_MPEG4/ISO/AVC
Duration : 1 h 38 min
Bit rate mode : Variable
Bit rate : 24.9 Mb/s
Width : 1 920 pixels
Height : 1 080 pixels
Display aspect ratio : 16:9
Frame rate mode : Constant
Frame rate : 23.976 (24000/1001) FPS
Color space : YUV
Chroma subsampling : 4:2:0
Bit depth : 8 bits
Scan type : Progressive
Bits/(Pixel*Frame) : 0.500
Stream size : 17.1 GiB (91%)
Language : English
Default : Yes
Forced : No
Audio #1
ID : 2
Format : AC-3
Format/Info : Audio Coding 3
Mode extension : CM (complete main)
Format settings, Endianness : Big
Codec ID : A_AC3
Duration : 1 h 38 min
Bit rate mode : Constant
Bit rate : 384 kb/s
Channel(s) : 6 channels
Channel positions : Front: L C R, Side: L R, LFE
Sampling rate : 48.0 kHz
Frame rate : 31.250 FPS (1536 spf)
Compression mode : Lossy
Delay relative to video : 960 ms
Stream size : 271 MiB (1%)
Title : DUB [iTunes]
Language : Russian
Default : Yes
Forced : No
Audio #2
ID : 3
Format : DTS
Format/Info : Digital Theater Systems
Format profile : MA / Core
Mode : 16
Format settings, Endianness : Big
Codec ID : A_DTS
Duration : 1 h 38 min
Bit rate mode : Variable / Constant
Bit rate : 2 105 kb/s / 1 509 kb/s
Channel(s) : 6 channels
Channel positions : Front: L C R, Side: L R, LFE
Sampling rate : 48.0 kHz
Frame rate : 93.750 FPS (512 spf)
Bit depth : 16 bits
Compression mode : Lossless / Lossy
Stream size : 1.45 GiB (8%)
Title : Original
Language : English
Default : No
Forced : No
Text #1
ID : 4
Format : UTF-8
Codec ID : S_TEXT/UTF8
Codec ID/Info : UTF-8 Plain Text
Duration : 1 h 34 min
Bit rate : 113 b/s
Count of elements : 1939
Stream size : 78.2 KiB (0%)
Title : Full
Language : English
Default : No
Forced : No
Text #2
ID : 5
Format : UTF-8
Codec ID : S_TEXT/UTF8
Codec ID/Info : UTF-8 Plain Text
Duration : 1 h 34 min
Bit rate : 120 b/s
Count of elements : 2031
Stream size : 83.4 KiB (0%)
Title : SDH
Language : English
Default : No
Forced : No
Menu
00:00:00.000 : en:00:00:00.000
00:07:14.225 : en:00:07:14.225
00:12:38.800 : en:00:12:38.800
00:20:08.457 : en:00:20:08.457
00:24:32.179 : en:00:24:32.179
00:31:37.854 : en:00:31:37.854
00:39:52.140 : en:00:39:52.140
00:45:29.101 : en:00:45:29.101
00:51:37.511 : en:00:51:37.511
00:55:39.628 : en:00:55:39.628
00:58:43.019 : en:00:58:43.019
01:06:42.207 : en:01:06:42.207
01:10:27.682 : en:01:10:27.682
01:16:06.228 : en:01:16:06.228
01:19:55.165 : en:01:19:55.165
01:29:35.036 : en:01:29:35.036

Скриншоты

Автор релиза:
[Профиль] [ЛС]
Показать сообщения:    

Текущее время: Сегодня 08:32

Часовой пояс: GMT



Вы не можете начинать темы
Вы не можете отвечать на сообщения
Вы не можете редактировать свои сообщения
Вы не можете удалять свои сообщения
Вы не можете голосовать в опросах
Вы не можете прикреплять файлы к сообщениям
Вы не можете скачивать файлы