Ферма во времена Тюдоров / Tudor Monastery Farm (Стюарт Эллиотт / Stuart Elliott) [2013, (6 Серий из 6), HDTVRip 720p]

 
Автор Сообщение

TorrentFilm ®

Пол:

Стаж: 2 года

Сообщений: 7741



Награды: Нет

Торрент-статистика

Создавать темы 25-Мар-2015 00:02

[Цитировать]

Ферма во времена Тюдоров / Tudor Monastery Farm
Дата/Год выпуска: 2013
Страна: Великобритания
Жанр: Документальный сериал
Продолжительность: 6x00:59
Перевод: Студийный (одноголосый закадровый)
Доп. инфо о переводе: SDI Media
Оригинальная аудиодорожка: английский
Режиссер: Стюарт Эллиотт / Stuart Elliott
Телеканал: BBC TWO
Описание: Если вы хотите узнать все о духовном мире средневековой Англии, то вам стоит отправиться в монастырь. Историки Рут Гудман и Питер Джин вместе с археологом Томом Пинфолдом возьмут на себя роли обычных мирян, которые в Средние века выполняли всю основную работу на ферме, принадлежащей монастырю. Несмотря на то, что главной функцией монастыря было молиться и заботиться о духовном здравии всех христиан, живых или мертвых, монастыри в Средние века также владели большим числом земель, что позволяло им занимать важнейшие позиции в фермерском хозяйстве.
Доп. информация: http://www.bbc.co.uk/programmes/p01k3b96
Перевод - Татьяна Вишневская, Текст читает - Виктория Бабанова
Подготовка и сведение звука - Gangsteel
Русские дорожки взяты у - р0бинз0н
Сэмпл: https://yadi.sk/i/z0VYtL5qfQVTp
качество: HDTVRip
формат: MKV
Видео: AVC, 3698 Кбит/сек, 1280*720, 25,000 кадров/сек
Аудио 1 Rus: MP-3, 128 Кбит/сек, 48,0 КГц, 2 канала
Аудио 2 Eng: AAC(LC), 48,0 КГц, 2 канала
Субтитры: Английские UTF-8

Список выпусков/серий

1 Серия. Нашим фермерам предстоит научиться разжигать огонь при помощи кремня, готовить еду из истощенного урожая во время сильного голода, а также наливать воду из колодца.
2 Серия. Рассказ о шерсти, или как ее еще называли «жемчужине королевства», продажа которой составляла половину дохода всей страны.
3 Серия. В самый разгар лета наши фермеры внимательно следят за урожаем зерновых. Злаки впоследствии станут для них основными продуктами питания в зимнее время.
4 серия. Монастыри обладали огромными поместьями, включая реки и леса. На этой неделе наши фермеры будут учиться пользоваться этими благами.
5 серия. Мы узнаем об английском гостеприимстве во времена правления династии Тюдоров. Так как бедное население ничего не получало от государства, вся надежда была на монастырь.
6 серия. Время сбора урожая! Наши фермеры отмечают сбор урожая веселыми торжествами.

MediaInfo

ОбщееУникальный идентификатор : 223480515494095342363488084759086042473 (0xA820C81C07E82D739C919F3B91270D69)Полное имя : E:\Rutracker-Razdachi\Ферма.во.времена.Тюдоров.720p.HDTV.x264.by.Gangsteel\Tudor.Monastery.Farm.1of6.720p.HDTV.x264.by.Gangsteel.mkvФормат : MatroskaВерсия формата : Version 4 / Version 2Размер файла : 1,79 ГбайтПродолжительность : 59 м.Общий поток : 4337 Кбит/секДата кодирования : UTC 2015-03-13 23:54:08Программа кодирования : mkvmerge v7.1.0 ('Good Love') 32bit built on Jul 27 2014 12:59:18Библиотека кодирования : libebml v1.3.0 + libmatroska v1.4.1DURATION : 00:59:00.000000000NUMBER_OF_FRAMES : 147500NUMBER_OF_BYTES : 56640000_STATISTICS_WRITING_APP : mkvmerge v7.1.0 ('Good Love') 32bit built on Jul 27 2014 12:59:18_STATISTICS_WRITING_DATE_UTC : 2015-03-13 23:54:08_STATISTICS_TAGS : BPS DURATION NUMBER_OF_FRAMES NUMBER_OF_BYTES
ВидеоИдентификатор : 1Формат : AVCФормат/Информация : Advanced Video CodecПрофиль формата : High@L4.1Параметр CABAC формата : ДаПараметр ReFrames формата : 6 кадровИдентификатор кодека : V_MPEG4/ISO/AVCПродолжительность : 59 м.Ширина : 1280 пикселейВысота : 720 пикселейСоотношение сторон : 16:9Режим частоты кадров : ПостоянныйЧастота кадров : 25,000 кадров/секЦветовое пространство : YUVСубдискретизация насыщенности : 4:2:0Битовая глубина : 8 битТип развёртки : ПрогрессивнаяБиблиотека кодирования : x264 core 140 r2377 1ca7bb9Настройки программы : cabac=1 / ref=6 / deblock=1:0:0 / analyse=0x3:0x113 / me=umh / subme=9 / psy=1 / psy_rd=1.00:0.00 / mixed_ref=1 / me_range=24 / chroma_me=1 / trellis=1 / 8x8dct=1 / cqm=0 / deadzone=21,11 / fast_pskip=0 / chroma_qp_offset=-2 / threads=3 / lookahead_threads=1 / sliced_threads=0 / nr=0 / decimate=1 / interlaced=0 / bluray_compat=0 / constrained_intra=0 / bframes=3 / b_pyramid=2 / b_adapt=1 / b_bias=0 / direct=1 / weightb=1 / open_gop=0 / weightp=2 / keyint=250 / keyint_min=15 / scenecut=40 / intra_refresh=0 / rc_lookahead=40 / rc=crf / mbtree=1 / crf=20.0 / qcomp=0.60 / qpmin=0 / qpmax=69 / qpstep=4 / ip_ratio=1.40 / aq=1:1.00Язык : EnglishDefault : ДаForced : НетDURATION : 00:59:00.000000000NUMBER_OF_FRAMES : 88500NUMBER_OF_BYTES : 1801779855_STATISTICS_WRITING_APP : mkvmerge v7.1.0 ('Good Love') 32bit built on Jul 27 2014 12:59:18_STATISTICS_WRITING_DATE_UTC : 2015-03-13 23:54:08_STATISTICS_TAGS : BPS DURATION NUMBER_OF_FRAMES NUMBER_OF_BYTES
Аудио #1Идентификатор : 2Формат : MPEG AudioВерсия формата : Version 1Профиль формата : Layer 3Идентификатор кодека : A_MPEG/L3Идентификатор кодека/Подсказка : MP3Продолжительность : 59 м.Вид битрейта : ПостоянныйБитрейт : 128 Кбит/секКаналы : 2 каналаЧастота : 48,0 КГцМетод сжатия : С потерямиРазмер потока : 54,0 Мбайт (3%)Библиотека кодирования : LAME3.99rНастройки программы : -m s -V 4 -q 0 -lowpass 17 -b 128Язык : RussianDefault : ДаForced : Нет
Аудио #2Идентификатор : 3Формат : AACФормат/Информация : Advanced Audio CodecПрофиль формата : LCИдентификатор кодека : A_AACПродолжительность : 59 м.Каналы : 2 каналаРасположение каналов : Front: L RЧастота : 48,0 КГцМетод сжатия : С потерямиЗадержка видео : 9 мс.Язык : EnglishDefault : НетForced : Нет
ТекстИдентификатор : 4Формат : UTF-8Идентификатор кодека : S_TEXT/UTF8Идентификатор кодека/Информация : UTF-8 Plain TextЯзык : EnglishDefault : НетForced : Нет////////////////////////////////////////////////////////////////////////////////ОбщееУникальный идентификатор : 213392511853213350712764222671624469989 (0xA089E721162A3CFF8B843B863159FDE5)Полное имя : E:\Rutracker-Razdachi\Ферма.во.времена.Тюдоров.720p.HDTV.x264.by.Gangsteel\Tudor.Monastery.Farm.2of6.720p.HDTV.x264.by.Gangsteel.mkvФормат : MatroskaВерсия формата : Version 4 / Version 2Размер файла : 1,47 ГбайтПродолжительность : 59 м.Общий поток : 3556 Кбит/секДата кодирования : UTC 2015-03-13 23:51:46Программа кодирования : mkvmerge v7.1.0 ('Good Love') 32bit built on Jul 27 2014 12:59:18Библиотека кодирования : libebml v1.3.0 + libmatroska v1.4.1DURATION : 00:58:59.736000000NUMBER_OF_FRAMES : 147489NUMBER_OF_BYTES : 56635776_STATISTICS_WRITING_APP : mkvmerge v7.1.0 ('Good Love') 32bit built on Jul 27 2014 12:59:18_STATISTICS_WRITING_DATE_UTC : 2015-03-13 23:51:46_STATISTICS_TAGS : BPS DURATION NUMBER_OF_FRAMES NUMBER_OF_BYTES
ВидеоИдентификатор : 1Формат : AVCФормат/Информация : Advanced Video CodecПрофиль формата : High@L4.1Параметр CABAC формата : ДаПараметр ReFrames формата : 6 кадровИдентификатор кодека : V_MPEG4/ISO/AVCПродолжительность : 59 м.Ширина : 1280 пикселейВысота : 720 пикселейСоотношение сторон : 16:9Режим частоты кадров : ПостоянныйЧастота кадров : 25,000 кадров/секЦветовое пространство : YUVСубдискретизация насыщенности : 4:2:0Битовая глубина : 8 битТип развёртки : ПрогрессивнаяБиблиотека кодирования : x264 core 140 r2377 1ca7bb9Настройки программы : cabac=1 / ref=6 / deblock=1:0:0 / analyse=0x3:0x113 / me=umh / subme=9 / psy=1 / psy_rd=1.00:0.00 / mixed_ref=1 / me_range=24 / chroma_me=1 / trellis=1 / 8x8dct=1 / cqm=0 / deadzone=21,11 / fast_pskip=0 / chroma_qp_offset=-2 / threads=3 / lookahead_threads=1 / sliced_threads=0 / nr=0 / decimate=1 / interlaced=0 / bluray_compat=0 / constrained_intra=0 / bframes=3 / b_pyramid=2 / b_adapt=1 / b_bias=0 / direct=1 / weightb=1 / open_gop=0 / weightp=2 / keyint=250 / keyint_min=15 / scenecut=40 / intra_refresh=0 / rc_lookahead=40 / rc=crf / mbtree=1 / crf=20.0 / qcomp=0.60 / qpmin=0 / qpmax=69 / qpstep=4 / ip_ratio=1.40 / aq=1:1.00Язык : EnglishDefault : ДаForced : НетDURATION : 00:59:00.960000000NUMBER_OF_FRAMES : 88524NUMBER_OF_BYTES : 1456699537_STATISTICS_WRITING_APP : mkvmerge v7.1.0 ('Good Love') 32bit built on Jul 27 2014 12:59:18_STATISTICS_WRITING_DATE_UTC : 2015-03-13 23:51:46_STATISTICS_TAGS : BPS DURATION NUMBER_OF_FRAMES NUMBER_OF_BYTES
Аудио #1Идентификатор : 2Формат : MPEG AudioВерсия формата : Version 1Профиль формата : Layer 3Идентификатор кодека : A_MPEG/L3Идентификатор кодека/Подсказка : MP3Продолжительность : 58 м.Вид битрейта : ПостоянныйБитрейт : 128 Кбит/секКаналы : 2 каналаЧастота : 48,0 КГцМетод сжатия : С потерямиРазмер потока : 54,0 Мбайт (4%)Библиотека кодирования : LAME3.99rНастройки программы : -m s -V 4 -q 0 -lowpass 17 -b 128Язык : RussianDefault : ДаForced : Нет
Аудио #2Идентификатор : 3Формат : AACФормат/Информация : Advanced Audio CodecПрофиль формата : LCИдентификатор кодека : A_AACПродолжительность : 59 м.Каналы : 2 каналаРасположение каналов : Front: L RЧастота : 48,0 КГцМетод сжатия : С потерямиЗадержка видео : 9 мс.Язык : EnglishDefault : НетForced : Нет
ТекстИдентификатор : 4Формат : UTF-8Идентификатор кодека : S_TEXT/UTF8Идентификатор кодека/Информация : UTF-8 Plain TextЯзык : EnglishDefault : НетForced : Нет///////////////////////////////////////////////////////////ОбщееУникальный идентификатор : 246582053873555411870014433120147740548 (0xB981F9E3ADDF3C72B47AD48A63201784)Полное имя : E:\Rutracker-Razdachi\Ферма.во.времена.Тюдоров.720p.HDTV.x264.by.Gangsteel\Tudor.Monastery.Farm.3of6.720p.HDTV.x264.by.Gangsteel.mkvФормат : MatroskaВерсия формата : Version 4 / Version 2Размер файла : 1,52 ГбайтПродолжительность : 59 м.Режим общего битрейта : ПеременныйОбщий поток : 3698 Кбит/секДата кодирования : UTC 2015-03-13 23:49:09Программа кодирования : mkvmerge v7.1.0 ('Good Love') 32bit built on Jul 27 2014 12:59:18Библиотека кодирования : libebml v1.3.0 + libmatroska v1.4.1DURATION : 00:59:00.000000000NUMBER_OF_FRAMES : 147500NUMBER_OF_BYTES : 56639712_STATISTICS_WRITING_APP : mkvmerge v7.1.0 ('Good Love') 32bit built on Jul 27 2014 12:59:18_STATISTICS_WRITING_DATE_UTC : 2015-03-13 23:49:09_STATISTICS_TAGS : BPS DURATION NUMBER_OF_FRAMES NUMBER_OF_BYTES
ВидеоИдентификатор : 1Формат : AVCФормат/Информация : Advanced Video CodecПрофиль формата : High@L4.1Параметр CABAC формата : ДаПараметр ReFrames формата : 6 кадровИдентификатор кодека : V_MPEG4/ISO/AVCПродолжительность : 59 м.Ширина : 1280 пикселейВысота : 720 пикселейСоотношение сторон : 16:9Режим частоты кадров : ПостоянныйЧастота кадров : 25,000 кадров/секЦветовое пространство : YUVСубдискретизация насыщенности : 4:2:0Битовая глубина : 8 битТип развёртки : ПрогрессивнаяБиблиотека кодирования : x264 core 140 r2377 1ca7bb9Настройки программы : cabac=1 / ref=6 / deblock=1:0:0 / analyse=0x3:0x113 / me=umh / subme=9 / psy=1 / psy_rd=1.00:0.00 / mixed_ref=1 / me_range=24 / chroma_me=1 / trellis=1 / 8x8dct=1 / cqm=0 / deadzone=21,11 / fast_pskip=0 / chroma_qp_offset=-2 / threads=3 / lookahead_threads=1 / sliced_threads=0 / nr=0 / decimate=1 / interlaced=0 / bluray_compat=0 / constrained_intra=0 / bframes=3 / b_pyramid=2 / b_adapt=1 / b_bias=0 / direct=1 / weightb=1 / open_gop=0 / weightp=2 / keyint=250 / keyint_min=15 / scenecut=40 / intra_refresh=0 / rc_lookahead=40 / rc=crf / mbtree=1 / crf=20.0 / qcomp=0.60 / qpmin=0 / qpmax=69 / qpstep=4 / ip_ratio=1.40 / aq=1:1.00Язык : EnglishDefault : ДаForced : НетDURATION : 00:59:00.000000000NUMBER_OF_FRAMES : 88500NUMBER_OF_BYTES : 1519639558_STATISTICS_WRITING_APP : mkvmerge v7.1.0 ('Good Love') 32bit built on Jul 27 2014 12:59:18_STATISTICS_WRITING_DATE_UTC : 2015-03-13 23:49:09_STATISTICS_TAGS : BPS DURATION NUMBER_OF_FRAMES NUMBER_OF_BYTES
Аудио #1Идентификатор : 2Формат : MPEG AudioВерсия формата : Version 1Профиль формата : Layer 3Режим : Joint stereoИдентификатор кодека : A_MPEG/L3Идентификатор кодека/Подсказка : MP3Продолжительность : 59 м.Вид битрейта : ПеременныйБитрейт : 128 Кбит/секКаналы : 2 каналаЧастота : 48,0 КГцМетод сжатия : С потерямиРазмер потока : 54,0 Мбайт (3%)Библиотека кодирования : LAME3.99Настройки программы : -m j -V 4 -q 2 -lowpass 17 -b 128Язык : RussianDefault : ДаForced : Нет
Аудио #2Идентификатор : 3Формат : AACФормат/Информация : Advanced Audio CodecПрофиль формата : LCИдентификатор кодека : A_AACПродолжительность : 59 м.Каналы : 2 каналаРасположение каналов : Front: L RЧастота : 48,0 КГцМетод сжатия : С потерямиЗадержка видео : 9 мс.Язык : EnglishDefault : НетForced : Нет
ТекстИдентификатор : 4Формат : UTF-8Идентификатор кодека : S_TEXT/UTF8Идентификатор кодека/Информация : UTF-8 Plain TextЯзык : EnglishDefault : НетForced : Нет///////////////////////////////////////////////////////////ОбщееУникальный идентификатор : 239597861862619033067270616508524749774 (0xB440DEA32ADCEB8EA770EE9319C563CE)Полное имя : E:\Rutracker-Razdachi\Ферма.во.времена.Тюдоров.720p.HDTV.x264.by.Gangsteel\Tudor.Monastery.Farm.4of6.720p.HDTV.x264.by.Gangsteel.mkvФормат : MatroskaВерсия формата : Version 4 / Version 2Размер файла : 1,70 ГбайтПродолжительность : 59 м.Общий поток : 4116 Кбит/секДата кодирования : UTC 2015-03-13 23:45:13Программа кодирования : mkvmerge v7.1.0 ('Good Love') 32bit built on Jul 27 2014 12:59:18Библиотека кодирования : libebml v1.3.0 + libmatroska v1.4.1DURATION : 00:59:00.000000000NUMBER_OF_FRAMES : 147500NUMBER_OF_BYTES : 56640000_STATISTICS_WRITING_APP : mkvmerge v7.1.0 ('Good Love') 32bit built on Jul 27 2014 12:59:18_STATISTICS_WRITING_DATE_UTC : 2015-03-13 23:45:13_STATISTICS_TAGS : BPS DURATION NUMBER_OF_FRAMES NUMBER_OF_BYTES
ВидеоИдентификатор : 1Формат : AVCФормат/Информация : Advanced Video CodecПрофиль формата : High@L4.1Параметр CABAC формата : ДаПараметр ReFrames формата : 6 кадровИдентификатор кодека : V_MPEG4/ISO/AVCПродолжительность : 59 м.Ширина : 1280 пикселейВысота : 720 пикселейСоотношение сторон : 16:9Режим частоты кадров : ПостоянныйЧастота кадров : 25,000 кадров/секЦветовое пространство : YUVСубдискретизация насыщенности : 4:2:0Битовая глубина : 8 битТип развёртки : ПрогрессивнаяБиблиотека кодирования : x264 core 140 r2377 1ca7bb9Настройки программы : cabac=1 / ref=6 / deblock=1:0:0 / analyse=0x3:0x113 / me=umh / subme=9 / psy=1 / psy_rd=1.00:0.00 / mixed_ref=1 / me_range=24 / chroma_me=1 / trellis=1 / 8x8dct=1 / cqm=0 / deadzone=21,11 / fast_pskip=0 / chroma_qp_offset=-2 / threads=3 / lookahead_threads=1 / sliced_threads=0 / nr=0 / decimate=1 / interlaced=0 / bluray_compat=0 / constrained_intra=0 / bframes=3 / b_pyramid=2 / b_adapt=1 / b_bias=0 / direct=1 / weightb=1 / open_gop=0 / weightp=2 / keyint=250 / keyint_min=15 / scenecut=40 / intra_refresh=0 / rc_lookahead=40 / rc=crf / mbtree=1 / crf=20.0 / qcomp=0.60 / qpmin=0 / qpmax=69 / qpstep=4 / ip_ratio=1.40 / aq=1:1.00Язык : EnglishDefault : ДаForced : НетDURATION : 00:59:00.000000000NUMBER_OF_FRAMES : 88500NUMBER_OF_BYTES : 1705292873_STATISTICS_WRITING_APP : mkvmerge v7.1.0 ('Good Love') 32bit built on Jul 27 2014 12:59:18_STATISTICS_WRITING_DATE_UTC : 2015-03-13 23:45:13_STATISTICS_TAGS : BPS DURATION NUMBER_OF_FRAMES NUMBER_OF_BYTES
Аудио #1Идентификатор : 2Формат : MPEG AudioВерсия формата : Version 1Профиль формата : Layer 3Идентификатор кодека : A_MPEG/L3Идентификатор кодека/Подсказка : MP3Продолжительность : 59 м.Вид битрейта : ПостоянныйБитрейт : 128 Кбит/секКаналы : 2 каналаЧастота : 48,0 КГцМетод сжатия : С потерямиРазмер потока : 54,0 Мбайт (3%)Библиотека кодирования : LAME3.99rНастройки программы : -m s -V 4 -q 0 -lowpass 17 -b 128Язык : RussianDefault : ДаForced : Нет
Аудио #2Идентификатор : 3Формат : AACФормат/Информация : Advanced Audio CodecПрофиль формата : LCИдентификатор кодека : A_AACПродолжительность : 59 м.Каналы : 2 каналаРасположение каналов : Front: L RЧастота : 48,0 КГцМетод сжатия : С потерямиЗадержка видео : 9 мс.Язык : EnglishDefault : НетForced : Нет
ТекстИдентификатор : 4Формат : UTF-8Идентификатор кодека : S_TEXT/UTF8Идентификатор кодека/Информация : UTF-8 Plain TextЯзык : EnglishDefault : НетForced : Нет/////////////////////////////////////////////////////////////ОбщееУникальный идентификатор : 246906582698421994920410022959864056649 (0xB9C07A6551EF7D938CB697CD76138B49)Полное имя : E:\Rutracker-Razdachi\Ферма.во.времена.Тюдоров.720p.HDTV.x264.by.Gangsteel\Tudor.Monastery.Farm.5of6.720p.HDTV.x264.by.Gangsteel.mkvФормат : MatroskaВерсия формата : Version 4 / Version 2Размер файла : 1,40 ГбайтПродолжительность : 58 м.Общий поток : 3391 Кбит/секДата кодирования : UTC 2015-03-13 23:40:23Программа кодирования : mkvmerge v7.1.0 ('Good Love') 32bit built on Jul 27 2014 12:59:18Библиотека кодирования : libebml v1.3.0 + libmatroska v1.4.1DURATION : 00:58:56.064000000NUMBER_OF_FRAMES : 147336NUMBER_OF_BYTES : 56577024_STATISTICS_WRITING_APP : mkvmerge v7.1.0 ('Good Love') 32bit built on Jul 27 2014 12:59:18_STATISTICS_WRITING_DATE_UTC : 2015-03-13 23:40:23_STATISTICS_TAGS : BPS DURATION NUMBER_OF_FRAMES NUMBER_OF_BYTES
ВидеоИдентификатор : 1Формат : AVCФормат/Информация : Advanced Video CodecПрофиль формата : High@L4.1Параметр CABAC формата : ДаПараметр ReFrames формата : 6 кадровИдентификатор кодека : V_MPEG4/ISO/AVCПродолжительность : 58 м.Ширина : 1280 пикселейВысота : 720 пикселейСоотношение сторон : 16:9Режим частоты кадров : ПостоянныйЧастота кадров : 25,000 кадров/секЦветовое пространство : YUVСубдискретизация насыщенности : 4:2:0Битовая глубина : 8 битТип развёртки : ПрогрессивнаяБиблиотека кодирования : x264 core 140 r2377 1ca7bb9Настройки программы : cabac=1 / ref=6 / deblock=1:0:0 / analyse=0x3:0x113 / me=umh / subme=9 / psy=1 / psy_rd=1.00:0.00 / mixed_ref=1 / me_range=24 / chroma_me=1 / trellis=1 / 8x8dct=1 / cqm=0 / deadzone=21,11 / fast_pskip=0 / chroma_qp_offset=-2 / threads=3 / lookahead_threads=1 / sliced_threads=0 / nr=0 / decimate=1 / interlaced=0 / bluray_compat=0 / constrained_intra=0 / bframes=3 / b_pyramid=2 / b_adapt=1 / b_bias=0 / direct=1 / weightb=1 / open_gop=0 / weightp=2 / keyint=250 / keyint_min=15 / scenecut=40 / intra_refresh=0 / rc_lookahead=40 / rc=crf / mbtree=1 / crf=20.0 / qcomp=0.60 / qpmin=0 / qpmax=69 / qpstep=4 / ip_ratio=1.40 / aq=1:1.00Язык : EnglishDefault : ДаForced : НетDURATION : 00:58:57.000000000NUMBER_OF_FRAMES : 88425NUMBER_OF_BYTES : 1384623333_STATISTICS_WRITING_APP : mkvmerge v7.1.0 ('Good Love') 32bit built on Jul 27 2014 12:59:18_STATISTICS_WRITING_DATE_UTC : 2015-03-13 23:40:23_STATISTICS_TAGS : BPS DURATION NUMBER_OF_FRAMES NUMBER_OF_BYTES
Аудио #1Идентификатор : 2Формат : MPEG AudioВерсия формата : Version 1Профиль формата : Layer 3Идентификатор кодека : A_MPEG/L3Идентификатор кодека/Подсказка : MP3Продолжительность : 58 м.Вид битрейта : ПостоянныйБитрейт : 128 Кбит/секКаналы : 2 каналаЧастота : 48,0 КГцМетод сжатия : С потерямиРазмер потока : 54,0 Мбайт (4%)Библиотека кодирования : LAME3.99rНастройки программы : -m s -V 4 -q 0 -lowpass 17 -b 128Язык : RussianDefault : ДаForced : Нет
Аудио #2Идентификатор : 3Формат : AACФормат/Информация : Advanced Audio CodecПрофиль формата : LCИдентификатор кодека : A_AACПродолжительность : 58 м.Каналы : 2 каналаРасположение каналов : Front: L RЧастота : 48,0 КГцМетод сжатия : С потерямиЗадержка видео : 9 мс.Язык : EnglishDefault : НетForced : Нет
ТекстИдентификатор : 4Формат : UTF-8Идентификатор кодека : S_TEXT/UTF8Идентификатор кодека/Информация : UTF-8 Plain TextЯзык : EnglishDefault : НетForced : Нет//////////////////////////////////////////////////////////ОбщееУникальный идентификатор : 211304590607905871144236132539961513471 (0x9EF7C8A9FD2A51249EBAF6F99FF115FF)Полное имя : E:\Rutracker-Razdachi\Ферма.во.времена.Тюдоров.720p.HDTV.x264.by.Gangsteel\Tudor.Monastery.Farm.6of6.720p.HDTV.x264.by.Gangsteel.mkvФормат : MatroskaВерсия формата : Version 4 / Version 2Размер файла : 1,53 ГбайтПродолжительность : 58 м.Общий поток : 3713 Кбит/секДата кодирования : UTC 2015-03-13 11:35:57Программа кодирования : mkvmerge v7.1.0 ('Good Love') 32bit built on Jul 27 2014 12:59:18Библиотека кодирования : libebml v1.3.0 + libmatroska v1.4.1DURATION : 00:58:58.008000000NUMBER_OF_FRAMES : 147417NUMBER_OF_BYTES : 56608128_STATISTICS_WRITING_APP : mkvmerge v7.1.0 ('Good Love') 32bit built on Jul 27 2014 12:59:18_STATISTICS_WRITING_DATE_UTC : 2015-03-13 11:35:57_STATISTICS_TAGS : BPS DURATION NUMBER_OF_FRAMES NUMBER_OF_BYTES
ВидеоИдентификатор : 1Формат : AVCФормат/Информация : Advanced Video CodecПрофиль формата : High@L4.1Параметр CABAC формата : ДаПараметр ReFrames формата : 6 кадровИдентификатор кодека : V_MPEG4/ISO/AVCПродолжительность : 58 м.Ширина : 1280 пикселейВысота : 720 пикселейСоотношение сторон : 16:9Режим частоты кадров : ПостоянныйЧастота кадров : 25,000 кадров/секЦветовое пространство : YUVСубдискретизация насыщенности : 4:2:0Битовая глубина : 8 битТип развёртки : ПрогрессивнаяБиблиотека кодирования : x264 core 140 r2377 1ca7bb9Настройки программы : cabac=1 / ref=6 / deblock=1:0:0 / analyse=0x3:0x113 / me=umh / subme=9 / psy=1 / psy_rd=1.00:0.00 / mixed_ref=1 / me_range=24 / chroma_me=1 / trellis=1 / 8x8dct=1 / cqm=0 / deadzone=21,11 / fast_pskip=0 / chroma_qp_offset=-2 / threads=3 / lookahead_threads=1 / sliced_threads=0 / nr=0 / decimate=1 / interlaced=0 / bluray_compat=0 / constrained_intra=0 / bframes=3 / b_pyramid=2 / b_adapt=1 / b_bias=0 / direct=1 / weightb=1 / open_gop=0 / weightp=2 / keyint=250 / keyint_min=15 / scenecut=40 / intra_refresh=0 / rc_lookahead=40 / rc=crf / mbtree=1 / crf=20.0 / qcomp=0.60 / qpmin=0 / qpmax=69 / qpstep=4 / ip_ratio=1.40 / aq=1:1.00Язык : EnglishDefault : ДаForced : НетDURATION : 00:58:58.000000000NUMBER_OF_FRAMES : 88450NUMBER_OF_BYTES : 1525014140_STATISTICS_WRITING_APP : mkvmerge v7.1.0 ('Good Love') 32bit built on Jul 27 2014 12:59:18_STATISTICS_WRITING_DATE_UTC : 2015-03-13 11:35:57_STATISTICS_TAGS : BPS DURATION NUMBER_OF_FRAMES NUMBER_OF_BYTES
Аудио #1Идентификатор : 2Формат : MPEG AudioВерсия формата : Version 1Профиль формата : Layer 3Идентификатор кодека : A_MPEG/L3Идентификатор кодека/Подсказка : MP3Продолжительность : 58 м.Вид битрейта : ПостоянныйБитрейт : 128 Кбит/секКаналы : 2 каналаЧастота : 48,0 КГцМетод сжатия : С потерямиРазмер потока : 54,0 Мбайт (3%)Библиотека кодирования : LAME3.99rНастройки программы : -m s -V 4 -q 0 -lowpass 17 -b 128Язык : RussianDefault : ДаForced : Нет
Аудио #2Идентификатор : 3Формат : AACФормат/Информация : Advanced Audio CodecПрофиль формата : LCИдентификатор кодека : A_AACПродолжительность : 58 м.Каналы : 2 каналаРасположение каналов : Front: L RЧастота : 48,0 КГцМетод сжатия : С потерямиЗадержка видео : 9 мс.Язык : EnglishDefault : НетForced : Нет
ТекстИдентификатор : 4Формат : UTF-8Идентификатор кодека : S_TEXT/UTF8Идентификатор кодека/Информация : UTF-8 Plain TextЯзык : EnglishDefault : НетForced : Нет

Скриншоты

[Профиль] [ЛС]
Показать сообщения:    

Текущее время: Сегодня 12:13

Часовой пояс: GMT



Вы не можете начинать темы
Вы не можете отвечать на сообщения
Вы не можете редактировать свои сообщения
Вы не можете удалять свои сообщения
Вы не можете голосовать в опросах
Вы не можете прикреплять файлы к сообщениям
Вы не можете скачивать файлы