Феи: Легенда о чудовище / Tinker Bell and the Legend of the NeverBeast (2014) BDRemux-1080p | Чистый звук

 
Автор Сообщение

sergej644 ®

Пол:

Стаж: 4 года 11 месяцев

Сообщений: 6035

Откуда: Soviet Union



Награды: Нет

Торрент-статистика

Создавать темы 23-Фев-2015 18:48

[Цитировать]

--Феи: Легенда о чудовище / Tinker Bell and the Legend of the NeverBeast (2014)
Информация о фильме
Название : Феи: Легенда о чудовище
Оригинальное название : Tinker Bell and the Legend of the NeverBeast
Год выхода : 2014
Жанр : мультфильм, фэнтези, приключения, семейный
Режиссер : Стив Лотер
Роли озвучивали : Мэй Уитман, Джиннифер Гудвин, Розарио Доусон, Люси Лью, Томас Леннон, Рэйвен, Памела Адлон, Меган Хилти, Мелани Браун
Роли дублировали : Анна Бегунова, Екатерина Семенова, Ирина Слуцкая, Ольга Арнтгольц, Елена Великанова

Описание : Анимационная сказка расскажет удивительную историю о веселой и талантливой фее Фауне, которая убеждена в том, что о книге нельзя судить по ее обложке, впрочем, как и о животном по его клыкам, поэтому она дружит с таинственным существом громадных размеров из Нетландии по прозвищу Чудовище.
В это время группа волшебных фей разведки не настолько уверены в этом страшном звере и намереваются захватить его прежде, чем он уничтожит их дома. Они хотят отправиться на поиски Чудовища. Фауна, чтобы спасти своего нового друга, остается лишь доказать всем, что он — существо доброе и не собирается вредить другим…
Премьера (мир): 12 декабря 2014
Премьера (РФ): 18 декабря 2014
Релиз на DVD: 31 марта 2015
Релиз на Blu-Ray: 31 марта 2015

Страна : США
Производство : DisneyToon Studios, Prana Studios
Продолжительность : 01:16:14
Перевод : Профессиональный (полное дублирование) Чистый звук
Файл
Формат видео : MKV
Качество : BDRemux-1080p
Видео : AVC, 1920x1080 (16:9), 23.976 fps, 32992 Kbps
Звук 1: Русский, AC3, 48.0 KHz, 2 ch, 384 Kbps
Звук 2: Английский, DTS, 48.0 KHz, 8 ch, 1509 Kbps
Звук 3: Французский, AC3, 48.0 KHz, 6 ch, 640 Kbps
Звук 4: Испанский, AC3, 48.0 KHz, 6 ch, 640 Kbps
Субтитры (PGS): Английские, испанские, французские

Скриншоты

MediaInfo

General
      Unique ID : 197192757470003472459122755113784795671 (0x9459F19292B2189DADA52129D1CD6217)
      Complete name : E:/Torrent_2/Tinkerbell.And.The.Legend.Of.The.Neverbeast.2014.BDRemux.1080p.mkv
      Format : Matroska
      Format version : Version 4 / Version 2
      File size : 20.9 GiB
      Duration : 1h 16mn
      Overall bit rate mode : Variable
      Overall bit rate : 39.2 Mbps
      Encoded date : UTC 2015-02-20 18:24:40
      Writing application : mkvmerge v6.8.0 ('Theme for Great Cities') 64bit built on Mar  2 2014 21:34:26
      Writing library : libebml v1.3.0 + libmatroska v1.4.1
   Video #1
      ID : 1
      Format : AVC
      Format/Info : Advanced Video Codec
      Format profile : High@L4.1
      Format settings, CABAC : Yes
      Format settings, ReFrames : 4 frames
      Format settings, GOP : M=1, N=12
      Codec ID : V_MPEG4/ISO/AVC
      Duration : 1h 16mn
      Bit rate mode : Variable
      Maximum bit rate : 34.0 Mbps
      Width : 1 920 pixels
      Height : 1 080 pixels
      Display aspect ratio : 16:9
      Frame rate mode : Constant
      Frame rate : 23.976 fps
      Color space : YUV
      Chroma subsampling : 4:2:0
      Bit depth : 8 bits
      Scan type : Progressive
      Default : Yes
      Forced : No
   Audio #2
      ID : 2
      Format : AC-3
      Format/Info : Audio Coding 3
      Mode extension : CM (complete main)
      Format settings, Endianness : Big
      Codec ID : A_AC3
      Duration : 1h 16mn
      Bit rate mode : Constant
      Bit rate : 384 Kbps
      Channel(s) : 2 channels
      Channel positions : Front: L R
      Sampling rate : 48.0 KHz
      Bit depth : 16 bits
      Compression mode : Lossy
      Stream size : 209 MiB (1%)
      Language : Russian
      Default : Yes
      Forced : No
   Audio #3
      ID : 3
      Format : DTS
      Format/Info : Digital Theater Systems
      Format profile : MA / Core
      Mode : 16
      Format settings, Endianness : Big
      Codec ID : A_DTS
      Duration : 1h 16mn
      Bit rate mode : Variable
      Bit rate : Unknown / 1 509 Kbps
      Channel(s) : 8 channels / 6 channels
      Channel positions : Front: L C R, Side: L R, Back: L R, LFE / Front: L C R, Side: L R, LFE
      Sampling rate : 48.0 KHz
      Bit depth : 24 bits
      Compression mode : Lossless / Lossy
      Language : English
      Default : No
      Forced : No
   Audio #4
      ID : 4
      Format : AC-3
      Format/Info : Audio Coding 3
      Mode extension : CM (complete main)
      Format settings, Endianness : Big
      Codec ID : A_AC3
      Duration : 1h 16mn
      Bit rate mode : Constant
      Bit rate : 640 Kbps
      Channel(s) : 6 channels
      Channel positions : Front: L C R, Side: L R, LFE
      Sampling rate : 48.0 KHz
      Bit depth : 16 bits
      Compression mode : Lossy
      Stream size : 349 MiB (2%)
      Language : French
      Default : No
      Forced : No
   Audio #5
      ID : 5
      Format : AC-3
      Format/Info : Audio Coding 3
      Mode extension : CM (complete main)
      Format settings, Endianness : Big
      Codec ID : A_AC3
      Duration : 1h 16mn
      Bit rate mode : Constant
      Bit rate : 640 Kbps
      Channel(s) : 6 channels
      Channel positions : Front: L C R, Side: L R, LFE
      Sampling rate : 48.0 KHz
      Bit depth : 16 bits
      Compression mode : Lossy
      Stream size : 349 MiB (2%)
      Language : Spanish
      Default : No
      Forced : No
   Text #6
      ID : 6
      Format : PGS
      Muxing mode : zlib
      Codec ID : S_HDMV/PGS
      Codec ID/Info : The same subtitle format used on BDs/HD-DVDs
      Language : English
      Default : Yes
      Forced : No
   Text #7
      ID : 7
      Format : PGS
      Muxing mode : zlib
      Codec ID : S_HDMV/PGS
      Codec ID/Info : The same subtitle format used on BDs/HD-DVDs
      Language : English
      Default : No
      Forced : No
   Text #8
      ID : 8
      Format : PGS
      Muxing mode : zlib
      Codec ID : S_HDMV/PGS
      Codec ID/Info : The same subtitle format used on BDs/HD-DVDs
      Language : French
      Default : No
      Forced : No
   Text #9
      ID : 9
      Format : PGS
      Muxing mode : zlib
      Codec ID : S_HDMV/PGS
      Codec ID/Info : The same subtitle format used on BDs/HD-DVDs
      Language : Spanish
      Default : No
      Forced : No
   Text #10
      ID : 10
      Format : PGS
      Muxing mode : zlib
      Codec ID : S_HDMV/PGS
      Codec ID/Info : The same subtitle format used on BDs/HD-DVDs
      Language : French
      Default : No
      Forced : No
   Text #11
      ID : 11
      Format : PGS
      Muxing mode : zlib
      Codec ID : S_HDMV/PGS
      Codec ID/Info : The same subtitle format used on BDs/HD-DVDs
      Language : Spanish
      Default : No
      Forced : No
-
[Профиль] [ЛС]
Показать сообщения:    

Текущее время: Сегодня 07:01

Часовой пояс: GMT



Вы не можете начинать темы
Вы не можете отвечать на сообщения
Вы не можете редактировать свои сообщения
Вы не можете удалять свои сообщения
Вы не можете голосовать в опросах
Вы не можете прикреплять файлы к сообщениям
Вы не можете скачивать файлы