Федерал / Federal (Эрик Де Кастро / Erik de Castro) [2010, Бразилия, Франция, Колумбия, Боевик, криминал, HDRip] VO (Barin101) + Sub Rus, Por, Eng + Original Por

 
Автор Сообщение

painkiller ®

Стаж: 2 года 10 месяцев

Сообщений: 582



Награды: Нет

Торрент-статистика

Создавать темы 16-Авг-2014 01:26

[Цитировать]

Федерал / Federal
Страна: Бразилия, Франция, Колумбия
Жанр: Боевик, криминал
Год выпуска: 2010
Продолжительность: 01:31:25
Перевод: Одноголосый закадровый Barin101
Cубтитры: Русские (полные Barin101), Португальские (полные), Английские (только на португальские диалоги)
Оригинальная аудиодорожка: португальский
Режиссер: Эрик Де Кастро / Erik de Castro
В ролях: Майкл Мэдсен, Карлос Альберто Риччелли, Селтон Меллу, Кристовам Нетту, Сезариу Аугусту, Эдуардо Душек, Каролина Гомес
Описание: В бразильском городке убивают всю семью наркодилера. В ходе расследования федеральная полиция выходит на след крупного местного наркобарона. В расследовании им помогает американский агент Сэм в исполнении приглашённого М. Мэдсена.
Кинопоиск
IMDB
Качество видео: HDRip
Формат видео: AVI
Сэмпл http://multi-up.com/968307
Видео: 656x368 (1.78:1), 23.976 fps, XviD MPEG-4 ~1313 kbps avg, 0.23 bit/pixel
Аудио 1: 44.100 kHz, MPEG Layer 3, 2 ch, ~128.00 kbps avg РУС
Аудио 2: 48 kHz, MPEG Layer 3, 2 ch, ~128.00 kbps avg Por
Формат субтитров: softsub (SRT)

MediaInfo

General
Complete name : Federal 2010 Barin101.avi
Format : AVI
Format/Info : Audio Video Interleave
File size : 1.01 GiB
Duration : 1h 31mn
Overall bit rate : 1 584 Kbps
Writing application : VirtualDubMod 1.5.10.2 (build 2540/release)
Writing library : VirtualDubMod build 2540/release
Video
ID : 0
Format : MPEG-4 Visual
Format profile : Advanced Simple@L5
Format settings, BVOP : 1
Format settings, QPel : No
Format settings, GMC : No warppoints
Format settings, Matrix : Default (MPEG)
Muxing mode : Packed bitstream
Codec ID : XVID
Codec ID/Hint : XviD
Duration : 1h 31mn
Bit rate : 1 314 Kbps
Width : 656 pixels
Height : 368 pixels
Display aspect ratio : 16:9
Frame rate : 23.976 fps
Color space : YUV
Chroma subsampling : 4:2:0
Bit depth : 8 bits
Scan type : Progressive
Compression mode : Lossy
Bits/(Pixel*Frame) : 0.227
Stream size : 859 MiB (83%)
Writing library : XviD 1.2.0.dev47 (UTC 2006-11-01)
Audio #1
ID : 1
Format : MPEG Audio
Format version : Version 1
Format profile : Layer 3
Mode : Joint stereo
Mode extension : MS Stereo
Codec ID : 55
Codec ID/Hint : MP3
Duration : 1h 31mn
Bit rate mode : Constant
Bit rate : 128 Kbps
Channel(s) : 2 channels
Sampling rate : 44.1 KHz
Compression mode : Lossy
Stream size : 83.7 MiB (8%)
Alignment : Split accross interleaves
Interleave, duration : 42 ms (1.00 video frame)
Interleave, preload duration : 500 ms
Audio #2
ID : 2
Format : MPEG Audio
Format version : Version 1
Format profile : Layer 3
Mode : Joint stereo
Mode extension : MS Stereo
Codec ID : 55
Codec ID/Hint : MP3
Duration : 1h 31mn
Bit rate mode : Constant
Bit rate : 128 Kbps
Channel(s) : 2 channels
Sampling rate : 48.0 KHz
Compression mode : Lossy
Stream size : 83.7 MiB (8%)
Alignment : Aligned on interleaves
Interleave, duration : 42 ms (1.00 video frame)
Interleave, preload duration : 504 ms
Writing library : LAME3.97
Encoding settings : -m j -V 4 -q 2 -lowpass 17 -b 128

Скриншот c названием фильма

[Профиль] [ЛС]

Создавать темы 06-Авг-2015 23:09 (спустя 11 месяцев 21 день)

Топик был перенесен из форума Фильмы до 2014 года в форум Фильмы до 2012 года
sergej644
 

Создавать темы 12-Июн-2016 07:54 (спустя 1 год 9 месяцев)

Топик был перенесен из форума Фильмы 2011 года в форум Фильмы 2010 года
Russian Mafia
 
Кто просматривает тему:

Показать сообщения:    

Текущее время: Сегодня 14:14

Часовой пояс: GMT



Вы не можете начинать темы
Вы не можете отвечать на сообщения
Вы не можете редактировать свои сообщения
Вы не можете удалять свои сообщения
Вы не можете голосовать в опросах
Вы не можете прикреплять файлы к сообщениям
Вы не можете скачивать файлы