Фаталь / Fatal (Микаэль Юн / Michael Youn) [2010, Франция, комедия, музыка, DVDRip] VO + Original Fre

 
Автор Сообщение

painkiller ®

Стаж: 3 года 2 месяца

Сообщений: 582



Награды: Нет

Торрент-статистика

Создавать темы 16-Авг-2014 01:27

[Цитировать]

Фаталь / Fatal- Страна: Франция
Жанр: комедия, музыка
Год выпуска: 2010
Продолжительность: 01:42:12
Перевод: Одноголосый закадровый (Zelyoniy)
Cубтитры: нет
Оригинальная аудиодорожка: французский-Режиссер: Микаэль Юн / Michael Youn
В ролях: Микаэль Юн, Стефан Руссо, Изабель Фунаро, Венсан Дезанья, Фабрис Эбуе, Армель, Жером Ле Баннер, Эри Абиттан, Йинь-Тунь Чу, Реим Керичи, Жан Бенгиги, Катрин Аллегре-Описание: Гангста-рэппер Fatal Bazooka мегапопулярен во Франции (и во всём остальном мире) и является настоящей супер-звездой. Но однажды певец "электро-органического поп" Крис Прольс, нагло украл его популярность и занял драгоценное место "Numero Uno" на церемонии "Music Awards Music." Вдобавок выясняется, что вырос Фаталь вовсе не в гетто...
Расстроенный Фаталь сильно перебравши, устраивает скандал прямо в зале, что приводит к завершению карьеры звезды, бойкоту прессы, разорению и разводу. Всеми забытый Фаталь вынужден вернуться в свою родную деревню в Савойе и попытаться стать пастухом, как и его покойный отец.-
-Качество видео: DVDRip
Формат видео: AVI
Видео: XviD, 640x272, 1459 Kbps, 25 fps
Аудио 1: MP3, 192 Kbps, 2.0 ch, 48000 Hz
Аудио 2: AC3, 448 Kbps, 5.1 ch, 48000 Hz-

Скриншоты



Резервные скриншоты




-

MediaInfo

Format : AVI
Format/Info : Audio Video Interleave
File size : 1.51 GiB
Duration : 1h 42mn
Overall bit rate : 2 113 Kbps
Movie name : Fatal.French.DVDRip.XviD.AC3-LiberTeam
Director : Dedicool
Writing application : VirtualDubMod 1.5.10.2 (build 2540/release)
Writing library : VirtualDubMod build 2540/release
Original source form/Name : FATAL
Video
ID : 0
Format : MPEG-4 Visual
Format profile : Simple@L3
Format settings, BVOP : No
Format settings, QPel : No
Format settings, GMC : No warppoints
Format settings, Matrix : Default (H.263)
Codec ID : XVID
Codec ID/Hint : XviD
Duration : 1h 42mn
Bit rate : 1 459 Kbps
Width : 640 pixels
Height : 272 pixels
Display aspect ratio : 2.35:1
Frame rate : 25.000 fps
Color space : YUV
Chroma subsampling : 4:2:0
Bit depth : 8 bits
Scan type : Progressive
Compression mode : Lossy
Bits/(Pixel*Frame) : 0.335
Stream size : 1.04 GiB (69%)
Writing library : XviD 1.2.1 (UTC 2008-12-04)
Audio #1
ID : 1
Format : MPEG Audio
Format version : Version 1
Format profile : Layer 3
Mode : Joint stereo
Mode extension : MS Stereo
Codec ID : 55
Codec ID/Hint : MP3
Duration : 1h 42mn
Bit rate mode : Constant
Bit rate : 192 Kbps
Channel(s) : 2 channels
Sampling rate : 48.0 KHz
Compression mode : Lossy
Stream size : 140 MiB (9%)
Alignment : Aligned on interleaves
Interleave, duration : 40 ms (1.00 video frame)
Interleave, preload duration : 504 ms
Audio #2
ID : 2
Format : AC-3
Format/Info : Audio Coding 3
Mode extension : CM (complete main)
Format settings, Endianness : Big
Codec ID : 2000
Duration : 1h 42mn
Bit rate mode : Constant
Bit rate : 448 Kbps
Channel(s) : 6 channels
Channel positions : Front: L C R, Side: L R, LFE
Sampling rate : 48.0 KHz
Bit depth : 16 bits
Compression mode : Lossy
Stream size : 327 MiB (21%)
Alignment : Split accross interleaves
Interleave, duration : 40 ms (1.00 video frame)
Interleave, preload duration : 500 ms
[Профиль] [ЛС]

Создавать темы 06-Авг-2015 23:09 (спустя 11 месяцев 21 день)

Топик был перенесен из форума Фильмы до 2014 года в форум Фильмы до 2012 года
sergej644
 

Создавать темы 12-Июн-2016 07:54 (спустя 1 год 9 месяцев)

Топик был перенесен из форума Фильмы 2011 года в форум Фильмы 2010 года
Russian Mafia
 
Показать сообщения:    

Текущее время: Сегодня 11:27

Часовой пояс: GMT



Вы не можете начинать темы
Вы не можете отвечать на сообщения
Вы не можете редактировать свои сообщения
Вы не можете удалять свои сообщения
Вы не можете голосовать в опросах
Вы не можете прикреплять файлы к сообщениям
Вы не можете скачивать файлы