Фаталь / Fatal (Микаэль Юн / Michael Youn) [2010, Франция, Комедия, Пародия, DVDRip] VO + Sub Rus

 
Автор Сообщение

painkiller ®

Стаж: 2 года 3 месяца

Сообщений: 582



Награды: Нет

Торрент-статистика

Создавать темы 15-Авг-2014 10:17

[Цитировать]

Фаталь / Fatal
Страна: Франция
Жанр: Комедия, Пародия
Год выпуска: 2010
Продолжительность: 01:42:12
Перевод: Одноголосый закадровый (Zelyoniy)
Cубтитры: русские (WapeR_PauL)
Оригинальная аудиодорожка: нет
Режиссер: Микаэль Юн / Michael Youn
В ролях: Микаэль Юн, Стефан Руссо, Изабель Фунаро, Венсан Дезанья, Фабрис Эбуе, Армель, Жером Ле Баннер, Эри Абиттан, Йинь-Тунь Чу, Реим Керичи, Жан Бенгиги, Катрин Аллегре
Описание: Гангста-рэппер Fatal Bazooka мегапопулярен во Франции (и во всём остальном мире) и является настоящей супер-звездой. Но однажды певец "электро-органического поп" Крис Прольс, нагло украл его популярность и занял драгоценное место "Numero Uno" на церемонии "Music Awards Music." Вдобавок выясняется, что вырос Фаталь вовсе не в гетто...
Расстроенный Фаталь сильно перебравши, устраивает скандал прямо в зале, что приводит к завершению карьеры звезды, бойкоту прессы, разорению и разводу. Всеми забытый Фаталь вынужден вернуться в свою родную деревню в Савойе и попытаться стать пастухом, как и его покойный отец.
Качество видео: DVDRip
Формат видео: AVI
Видео: 837 кб/с, 720*304(2,35:1), mpeg-4(Visual X-Vid) Сжатый битовый поток, частота кадров 25,000 кадров/сек
Аудио: 192 кб/с, 48 кГц, 2 канала, Mpeg audio(mp3) (Join Stereo/Ms Stereo )
Формат субтитров: softsub (SRT)
Доп. информация о субтитрах: перевод песен

MediaInfo

Формат : AVI
Формат/Информация : Audio Video Interleave
Размер файла : 759 Мбайт
Продолжительность : 1 ч. 42 м.
Общий поток : 1039 Кбит/сек
Программа кодирования : VirtualDubMod 1.5.10.2 (build 2540/release)
Библиотека кодирования : VirtualDubMod build 2540/release
Видео
Идентификатор : 0
Формат : MPEG-4 Visual
Профиль формата : Advanced Simple@L5
Параметр BVOP формата : 2
Параметр QPel формата : Нет
Параметр GMC формата : Без точки перехода
Параметр матрицы формата : Default (MPEG)
Режим смешивания : Сжатый битовый поток
Идентификатор кодека : XVID
Идентификатор кодека/Подсказка : XviD
Продолжительность : 1 ч. 42 м.
Битрейт : 837 Кбит/сек
Ширина : 720 пикселей
Высота : 304 пикселя
Соотношение сторон : 2,35:1
Частота кадров : 25,000 кадров/сек
Цветовое пространство : YUV
Субдискретизация насыщенности : 4:2:0
Битовая глубина : 8 бит
Тип развёртки : Прогрессивная
Метод сжатия : С потерями
Бит/(Пиксели*Кадры) : 0.153
Размер потока : 612 Мбайт (81%)
Библиотека кодирования : XviD 1.2.1 (UTC 2008-12-04)
Аудио
Идентификатор : 1
Формат : MPEG Audio
Версия формата : Version 1
Профиль формата : Layer 3
Режим : Joint stereo
Расширение режима : MS Stereo
Идентификатор кодека : 55
Идентификатор кодека/Подсказка : MP3
Продолжительность : 1 ч. 42 м.
Вид битрейта : Постоянный
Битрейт : 192 Кбит/сек
Каналы : 2 канала
Частота : 48,0 КГц
Метод сжатия : С потерями
Размер потока : 140 Мбайт (18%)
Выравнивание : Соединение по промежуткам
Продолжительность промежутка : 40 мс. (1,00 видеокадр)
Время предзагрузки промежутка : 504 мс.

Скриншот c названием фильма

Скриншоты

Sample

Сэмпл: http://multi-up.com/952176
[Профиль] [ЛС]

Создавать темы 06-Авг-2015 23:10 (спустя 11 месяцев 22 дня)

Топик был перенесен из форума Фильмы до 2014 года в форум Фильмы до 2012 года
sergej644
 

Создавать темы 12-Июн-2016 07:54 (спустя 1 год 9 месяцев)

Топик был перенесен из форума Фильмы 2011 года в форум Фильмы 2010 года
Russian Mafia
 
Показать сообщения:    

Текущее время: Сегодня 11:00

Часовой пояс: GMT



Вы не можете начинать темы
Вы не можете отвечать на сообщения
Вы не можете редактировать свои сообщения
Вы не можете удалять свои сообщения
Вы не можете голосовать в опросах
Вы не можете прикреплять файлы к сообщениям
Вы не можете скачивать файлы