Фаталь / Fatal (Микаэль Юн / Michael Youn) [2010, Франция, комедия, музыка, HDRip] VO + Original Fre

 
Автор Сообщение

painkiller ®

Стаж: 2 года 3 месяца

Сообщений: 582



Награды: Нет

Торрент-статистика

Создавать темы 15-Авг-2014 10:17

[Цитировать]


Фаталь / Fatal
-
-
- Страна: Франция
Жанр: комедия, музыка
Год выпуска: 2010
Продолжительность: 01:42:28
Перевод: Одноголосый закадровый (Zelyoniy)
Cубтитры: нет
Оригинальная аудиодорожка: французский-Режиссер: Микаэль Юн / Michael Youn
В ролях: Микаэль Юн, Стефан Руссо, Изабель Фунаро, Венсан Дезанья, Фабрис Эбуе, Армель, Жером Ле Баннер, Эри Абиттан, Йинь-Тунь Чу, Реим Керичи, Жан Бенгиги, Катрин Аллегре-Описание: Гангста-рэппер Fatal Bazooka мегапопулярен во Франции (и во всём остальном мире) и является настоящей супер-звездой. Но однажды певец "электро-органического поп" Крис Прольс, нагло украл его популярность и занял драгоценное место "Numero Uno" на церемонии "Music Awards Music." Вдобавок выясняется, что вырос Фаталь вовсе не в гетто...
Расстроенный Фаталь сильно перебравши, устраивает скандал прямо в зале, что приводит к завершению карьеры звезды, бойкоту прессы, разорению и разводу. Всеми забытый Фаталь вынужден вернуться в свою родную деревню в Савойе и попытаться стать пастухом, как и его покойный отец.- Дополнительно: Большое спасибо за озвучивание Zelyoniy, перевод WapeR_PauL- Качество видео: HDRip (исх. BDRip 1080p)
Формат видео: AVI
Видео: XviD, 720x304, 2030 Kbps, 24 fps
Аудио 1: AC3, 448 Kbps, 5.1 ch, 48000 Hz - VO
Аудио 2: AC3, 448 Kbps, 5.1 ch, 48000 Hz - French
-

Скриншоты


Резервные скриншоты



-

MediaInfo

Format : AVIFormat/Info : Audio Video InterleaveFormat profile : OpenDMLFile size : 2.19 GiBDuration : 1h 46mnOverall bit rate : 2 946 KbpsWriting application : VirtualDubMod 1.5.10.3 | www.virtualdub-fr.org || (build 2550/release)Writing library : VirtualDubMod build 2550/release
VideoID : 0Format : MPEG-4 VisualFormat profile : Advanced Simple@L5Format settings, BVOP : 1Format settings, QPel : NoFormat settings, GMC : No warppointsFormat settings, Matrix : CustomCodec ID : XVIDCodec ID/Hint : XviDDuration : 1h 46mnBit rate : 2 032 KbpsWidth : 720 pixelsHeight : 304 pixelsDisplay aspect ratio : 2.35:1Frame rate : 24.000 fpsColor space : YUVChroma subsampling : 4:2:0Bit depth : 8 bitsScan type : ProgressiveCompression mode : LossyBits/(Pixel*Frame) : 0.387Stream size : 1.51 GiB (69%)Writing library : XviD 73
Audio #1ID : 1Format : AC-3Format/Info : Audio Coding 3Mode extension : CM (complete main)Format settings, Endianness : BigCodec ID : 2000Duration : 1h 46mnBit rate mode : ConstantBit rate : 448 KbpsChannel(s) : 6 channelsChannel positions : Front: L C R, Side: L R, LFESampling rate : 48.0 KHzBit depth : 16 bitsCompression mode : LossyStream size : 341 MiB (15%)Alignment : Split accross interleavesInterleave, duration : 42 ms (1.00 video frame)Interleave, preload duration : 500 ms
Audio #2ID : 2Format : AC-3Format/Info : Audio Coding 3Mode extension : CM (complete main)Format settings, Endianness : BigCodec ID : 2000Duration : 1h 46mnBit rate mode : ConstantBit rate : 448 KbpsChannel(s) : 6 channelsChannel positions : Front: L C R, Side: L R, LFESampling rate : 48.0 KHzBit depth : 16 bitsCompression mode : LossyStream size : 341 MiB (15%)Alignment : Split accross interleavesInterleave, duration : 42 ms (1.00 video frame)Interleave, preload duration : 500 ms
- -
[Профиль] [ЛС]

Создавать темы 06-Авг-2015 23:10 (спустя 11 месяцев 22 дня)

Топик был перенесен из форума Фильмы до 2014 года в форум Фильмы до 2012 года
sergej644
 

Создавать темы 12-Июн-2016 07:54 (спустя 1 год 9 месяцев)

Топик был перенесен из форума Фильмы 2011 года в форум Фильмы 2010 года
Russian Mafia
 
Показать сообщения:    

Текущее время: Сегодня 18:19

Часовой пояс: GMT



Вы не можете начинать темы
Вы не можете отвечать на сообщения
Вы не можете редактировать свои сообщения
Вы не можете удалять свои сообщения
Вы не можете голосовать в опросах
Вы не можете прикреплять файлы к сообщениям
Вы не можете скачивать файлы