Фартовый (2006) DVDRip-AVC

 
Автор Сообщение

Russian Mafia ®

Пол:

Стаж: 1 год 8 месяцев

Сообщений: 4257



Награды: 10 (Подробнее)

Mega Seeder 2 (Количество: 1) Top Releaser 2 (Количество: 1) Top Releaser 4 (Количество: 1)
Торрент-статистика

Создавать темы 08-Сен-2015 09:21

[Цитировать]

Оригинальное название: Фартовый
Год выхода: 2006
Жанр: Криминал, драма
Режиссер: Владимир Яканин
В ролях: Владимир Епифанцев, Екатерина Вуличенко, Алексей Жарков, Николай Иванов (I), Александр Мохов, Борис Невзоров, Дмитрий Щербина
О фильме: 22-летний Вадим Упоров по доносу осужден на 25 лет по статье 58 и отправлен в один из лагерей ГУЛАГА. По прибытии в лагерь он ссорится с ворами, и с вором в законе Дьяком, который приговаривает его к смерти. Чтобы избежать этой участи, он совершает побег. Побег не удается – его ловят, избивают и кидают в карцер в БУР. В "сейфе" Упоров проводит полгода... Вернувшись в барак, он участвует в конфликте между ворами и "суками" ГУЛАГа. Угрозы воров заставляют нашего героя совершить ещё один побег: он помогает ворам вынести воровскую кассу на "большую землю"... И снова побег раскрыт, в живых остается только Упоров.
Страна: Россия
Студия: ЗАО Народное кино
Продолжительность: 01:32:47
Язык: Русский
Субтитры: Русские
Кодек: MPEG-4 AVC
Качество: DVDRip-AVC
Видео: 720x460@768x460, 2849 Кбит/с, 25,000 fps
Звук: AC3, 6 ch, 448 Кбит/с
Субтитры: Русские
Семпл

MediaInfo

General
Unique ID : 210469907776255449856680374905498615750 (0x9E57079F85C639CE991BE8D7B855BFC6)
Complete name : J:Фартовый.2006.x264.DVDRip.(AVC).mkv
Format : Matroska
Format version : Version 4 / Version 2
File size : 2.14 GiB
Duration : 1h 32mn
Overall bit rate : 3 299 Kbps
Movie name : Фартовый / 2006 / Rip by PowerRock / ExKinoRay
Encoded date : UTC 2015-04-25 14:50:39
Writing application : mkvmerge v7.7.0 ('Six Voices') 64bit built on Feb 28 2015 23:39:33
Writing library : libebml v1.3.1 + libmatroska v1.4.2
Attachements : cover.jpg
DURATION : 01:26:34.691000000
NUMBER_OF_FRAMES : 741
NUMBER_OF_BYTES : 39489
_STATISTICS_WRITING_APP : mkvmerge v7.7.0 ('Six Voices') 64bit built on Feb 28 2015 23:39:33
_STATISTICS_WRITING_DATE_UT : 2015-04-25 14:50:39
_STATISTICS_TAGS : BPS DURATION NUMBER_OF_FRAMES NUMBER_OF_BYTES
Video
ID : 1
Format : AVC
Format/Info : Advanced Video Codec
Format profile : High@L4.1
Format settings, CABAC : Yes
Format settings, ReFrames : 8 frames
Codec ID : V_MPEG4/ISO/AVC
Duration : 1h 32mn
Bit rate : 2 849 Kbps
Width : 720 pixels
Height : 460 pixels
Display aspect ratio : 5:3
Frame rate mode : Constant
Frame rate : 25.000 fps
Color space : YUV
Chroma subsampling : 4:2:0
Bit depth : 8 bits
Scan type : Progressive
Bits/(Pixel*Frame) : 0.344
Stream size : 1.81 GiB (84%)
Title : Фартовый / 2006
Writing library : x264 core 146 r2538 121396c
Encoding settings : cabac=1 / ref=8 / deblock=1:-1:-1 / analyse=0x3:0x113 / me=umh / subme=10 / psy=1 / psy_rd=1.00:0.00 / mixed_ref=1 / me_range=24 / chroma_me=1 / trellis=2 / 8x8dct=1 / cqm=0 / deadzone=21,11 / fast_pskip=0 / chroma_qp_offset=-2 / threads=6 / lookahead_threads=1 / sliced_threads=0 / nr=0 / decimate=1 / interlaced=0 / bluray_compat=0 / constrained_intra=0 / bframes=7 / b_pyramid=2 / b_adapt=2 / b_bias=0 / direct=3 / weightb=1 / open_gop=0 / weightp=2 / keyint=250 / keyint_min=23 / scenecut=40 / intra_refresh=0 / rc_lookahead=50 / rc=2pass / mbtree=1 / bitrate=2849 / ratetol=1.0 / qcomp=0.60 / qpmin=10 / qpmax=51 / qpstep=4 / cplxblur=20.0 / qblur=0.5 / vbv_maxrate=14000 / vbv_bufsize=14000 / nal_hrd=none / filler=0 / ip_ratio=1.40 / aq=1:1.00
Default : Yes
Forced : No
DURATION : 01:32:47.800000000
NUMBER_OF_FRAMES : 139195
NUMBER_OF_BYTES : 1982417902
_STATISTICS_WRITING_APP : mkvmerge v7.7.0 ('Six Voices') 64bit built on Feb 28 2015 23:39:33
_STATISTICS_WRITING_DATE_UT : 2015-04-25 14:50:39
_STATISTICS_TAGS : BPS DURATION NUMBER_OF_FRAMES NUMBER_OF_BYTES
Audio
ID : 2
Format : AC-3
Format/Info : Audio Coding 3
Mode extension : CM (complete main)
Format settings, Endianness : Big
Codec ID : A_AC3
Duration : 1h 32mn
Bit rate mode : Constant
Bit rate : 448 Kbps
Channel(s) : 6 channels
Channel positions : Front: L C R, Side: L R, LFE
Sampling rate : 48.0 KHz
Compression mode : Lossy
Delay relative to video : 360ms
Stream size : 297 MiB (14%)
Language : Russian
Default : Yes
Forced : No
Text
ID : 3
Format : UTF-8
Codec ID : S_TEXT/UTF8
Codec ID/Info : UTF-8 Plain Text
Language : Russian
Default : Yes

Скриншоты



[Профиль] [ЛС]
Показать сообщения:    

Текущее время: Сегодня 20:43

Часовой пояс: GMT



Вы не можете начинать темы
Вы не можете отвечать на сообщения
Вы не можете редактировать свои сообщения
Вы не можете удалять свои сообщения
Вы не можете голосовать в опросах
Вы не можете прикреплять файлы к сообщениям
Вы не можете скачивать файлы