Фара (Абай Карпыков) [1999, Триллер, драма, SATRip]

 
Автор Сообщение

Один 777 ®

Пол:

Стаж: 1 год 8 месяцев

Сообщений: 456

Откуда: Луцк



Награды: 7 (Подробнее)

Mega Seeder 1 (Количество: 1) Mega Seeder 3 (Количество: 1) Mega Releaser 1 (Количество: 1)
Торрент-статистика

Создавать темы 28-Авг-2016 06:45

[Цитировать]

Фара
Год выпуска: 1999
Страна: Россия, Казахстан / ЭЙ-БИ-ЭЙ, Госкино, Millennium Films
Жанр: Триллер, драма
Продолжительность: 01:13:37
Cубтитры: нет
Режиссёр: Абай Карпыков
В ролях: Фархат Абдраимов, Кристина Орбакайте, Даурен Саркисеев, Александр Александров, Бопеш Жандаев, Саги Ашимов, Камилла Нуркеева, Сергей Дулесов, Юрий Капустин, Ирина Коваль, Жангельды Молдахметов, Алексей Давыдов, Игорь Сейфуллин, Умирзак Шманов, Оксана Бойченко, Олег Бирючев, Маусым Умиров, Индира Джакулбекова, Дияр Жазыкбаев, Елена Гудова...
Описание: В крупном банке на секретном счете лежат миллионы. Код счета знает единственный человек в городе, сын убитого директора банка, добродушный толстяк, владелец и шеф-повар кафе «Ласточка».
Он не пользуется своим наследством до тех пор, пока на его пути не попадается незнакомка с больным ребенком, жизнь которого можно спасти только немедленной и очень дорогой операцией. Это мафия решила устроить шантаж чувствительному Фаре, подослав к нему женщину, у которой не оставалось другого выбора. Тогда и «всплыл» заветный код. Но проблемы, за решение которых взялся Фара, помогли ему обрести близких людей и начать новую жизнь.
Доп. информация: Серебряный "Святой Георгий" за лучшую мужскую роль Фархату Абдраимову на XXI ММКФ (1999). Специальный приз жюри "За доброту и сердечность в воплощении человеческих отношений" на МКФ "Окно в Европу" (Выборг, 1999).

Сэмпл: http://sendfile.su/1260551

Качество видео: SATRip
Формат видео: AVI
Видео кодек: XviD
Аудио кодек: АС3
Видео: 688x512 (1.34:1), 25 fps, XviD build 73 ~2617 kbps avg, 0.30 bit/pixel
Аудио: 48 kHz, AC3 Dolby Digital, 2/0 (L,R) ch, ~192 kbps

MediaInfo

Общее
Полное имя : D:\Fara.1999.SATRip.1400.[Один 777].avi
Формат : AVI
Формат/Информация : Audio Video Interleave
Размер файла : 1,45 Гбайт
Продолжительность : 1 ч. 13 м.
Общий поток : 2820 Кбит/сек
Программа кодирования : VirtualDubMod 1.5.10.3 | www.virtualdub-fr.org || (build 2550/release)
Библиотека кодирования : VirtualDubMod build 2550/release
Видео
Идентификатор : 0
Формат : MPEG-4 Visual
Профиль формата : Advanced Simple@L5
Параметр BVOP формата : 2
Параметр QPel формата : Нет
Параметр GMC формата : Без точки перехода
Параметр матрицы формата : Default (H.263)
Идентификатор кодека : XVID
Идентификатор кодека/Подсказка : XviD
Продолжительность : 1 ч. 13 м.
Битрейт : 2618 Кбит/сек
Ширина : 688 пикселей
Высота : 512 пикселей
Соотношение сторон : 4:3
Частота кадров : 25,000 кадров/сек
Цветовое пространство : YUV
Субдискретизация насыщенности : 4:2:0
Битовая глубина : 8 бит
Тип развёртки : Прогрессивная
Метод сжатия : С потерями
Бит/(Пиксели*Кадры) : 0.297
Размер потока : 1,35 Гбайт (93%)
Библиотека кодирования : XviD 73
Аудио
Идентификатор : 1
Формат : AC-3
Формат/Информация : Audio Coding 3
Расширение режима : CM (complete main)
Параметр Endianness формата : Big
Идентификатор кодека : 2000
Продолжительность : 1 ч. 13 м.
Вид битрейта : Постоянный
Битрейт : 192 Кбит/сек
Каналы : 2 канала
Расположение каналов : Front: L R
Частота : 48,0 КГц
Частота кадров : 31,250 кадров/сек (1536 spf)
Метод сжатия : С потерями
Размер потока : 101 Мбайт (7%)
Выравнивание : Разделение по промежуткам
Продолжительность промежутка : 40 мс. (1,00 видеокадр)
Время предзагрузки промежутка : 500 мс.

Скриншот c названием фильма

Скриншоты

[Профиль] [ЛС]
Кто просматривает тему:

Форум Тема Автор Размер
R.G.TorrentFilm Video Фара (Абай Карпыков) [1999, Триллер, драма, SATRip] Один 777 748 MB
Показать сообщения:    

Текущее время: Сегодня 02:46

Часовой пояс: GMT



Вы не можете начинать темы
Вы не можете отвечать на сообщения
Вы не можете редактировать свои сообщения
Вы не можете удалять свои сообщения
Вы не можете голосовать в опросах
Вы не можете прикреплять файлы к сообщениям
Вы не можете скачивать файлы