Фара (Абай Карпыков) [1999, Триллер, драма, SATRip]

 
Автор Сообщение

Один 777 ®

Пол:

Стаж: 1 год 8 месяцев

Сообщений: 460

Откуда: Луцк



Награды: 7 (Подробнее)

Mega Seeder 1 (Количество: 1) За внесенный вклад в развитие сайта (Количество: 1) Mega Seeder 2 (Количество: 1)
Торрент-статистика

Создавать темы 28-Авг-2016 06:06

[Цитировать]

Фара
Год выпуска: 1999
Страна: Россия, Казахстан / ЭЙ-БИ-ЭЙ, Госкино, Millennium Films
Жанр: Триллер, драма
Продолжительность: 01:13:37
Cубтитры: нет
Режиссёр: Абай Карпыков
В ролях: Фархат Абдраимов, Кристина Орбакайте, Даурен Саркисеев, Александр Александров, Бопеш Жандаев, Саги Ашимов, Камилла Нуркеева, Сергей Дулесов, Юрий Капустин, Ирина Коваль, Жангельды Молдахметов, Алексей Давыдов, Игорь Сейфуллин, Умирзак Шманов, Оксана Бойченко, Олег Бирючев, Маусым Умиров, Индира Джакулбекова, Дияр Жазыкбаев, Елена Гудова...
Описание: В крупном банке на секретном счете лежат миллионы. Код счета знает единственный человек в городе, сын убитого директора банка, добродушный толстяк, владелец и шеф-повар кафе «Ласточка».
Он не пользуется своим наследством до тех пор, пока на его пути не попадается незнакомка с больным ребенком, жизнь которого можно спасти только немедленной и очень дорогой операцией. Это мафия решила устроить шантаж чувствительному Фаре, подослав к нему женщину, у которой не оставалось другого выбора. Тогда и «всплыл» заветный код. Но проблемы, за решение которых взялся Фара, помогли ему обрести близких людей и начать новую жизнь.
Доп. информация: Серебряный "Святой Георгий" за лучшую мужскую роль Фархату Абдраимову на XXI ММКФ (1999). Специальный приз жюри "За доброту и сердечность в воплощении человеческих отношений" на МКФ "Окно в Европу" (Выборг, 1999).

Сэмпл: http://sendfile.su/1260542

Качество видео: SATRip
Формат видео: AVI
Видео кодек: XviD
Аудио кодек: MP3
Видео: 640x480 (1.33:1), 25 fps, XviD build 73 ~1283 kbps avg, 0.17 bit/pixel
Аудио: 48 kHz, MPEG Layer 3, 2 ch, ~128.00 kbps avg

MediaInfo

Общее
Полное имя : D:\Fara.1999.SATRip.740.[Один 777].avi
Формат : AVI
Формат/Информация : Audio Video Interleave
Размер файла : 748 Мбайт
Продолжительность : 1 ч. 13 м.
Общий поток : 1421 Кбит/сек
Программа кодирования : VirtualDubMod 1.5.10.3 | www.virtualdub-fr.org || (build 2550/release)
Библиотека кодирования : VirtualDubMod build 2550/release
Видео
Идентификатор : 0
Формат : MPEG-4 Visual
Профиль формата : Advanced Simple@L5
Параметр BVOP формата : 2
Параметр QPel формата : Нет
Параметр GMC формата : Без точки перехода
Параметр матрицы формата : Default (H.263)
Идентификатор кодека : XVID
Идентификатор кодека/Подсказка : XviD
Продолжительность : 1 ч. 13 м.
Битрейт : 1283 Кбит/сек
Ширина : 640 пикселей
Высота : 480 пикселей
Соотношение сторон : 4:3
Частота кадров : 25,000 кадров/сек
Цветовое пространство : YUV
Субдискретизация насыщенности : 4:2:0
Битовая глубина : 8 бит
Тип развёртки : Прогрессивная
Метод сжатия : С потерями
Бит/(Пиксели*Кадры) : 0.167
Размер потока : 676 Мбайт (90%)
Библиотека кодирования : XviD 73
Аудио
Идентификатор : 1
Формат : MPEG Audio
Версия формата : Version 1
Профиль формата : Layer 3
Идентификатор кодека : 55
Идентификатор кодека/Подсказка : MP3
Продолжительность : 1 ч. 13 м.
Вид битрейта : Постоянный
Битрейт : 128 Кбит/сек
Каналы : 2 канала
Частота : 48,0 КГц
Метод сжатия : С потерями
Размер потока : 67,4 Мбайт (9%)
Выравнивание : Соединение по промежуткам
Продолжительность промежутка : 40 мс. (1,00 видеокадр)
Время предзагрузки промежутка : 504 мс.
Библиотека кодирования : LAME3.99r
Настройки программы : -m s -V 4 -q 2 -lowpass 17 -b 128

Скриншот c названием фильма

Скриншоты

[Профиль] [ЛС]
Кто просматривает тему:

Форум Тема Автор Размер
R.G.TorrentFilm Video Фара (Абай Карпыков) [1999, Триллер, драма, SATRip] Один 777 1.45 GB
Показать сообщения:    

Текущее время: Сегодня 14:56

Часовой пояс: GMT



Вы не можете начинать темы
Вы не можете отвечать на сообщения
Вы не можете редактировать свои сообщения
Вы не можете удалять свои сообщения
Вы не можете голосовать в опросах
Вы не можете прикреплять файлы к сообщениям
Вы не можете скачивать файлы