Фантомас: Трилогия / Fantomas: Trilogy (1964,1965,1967) BDRip [720p]

 
Автор Сообщение

sergej644 ®

Пол:

Стаж: 4 года 11 месяцев

Сообщений: 6038

Откуда: Soviet Union



Награды: Нет

Торрент-статистика

Создавать темы 03-Дек-2014 19:17

[Цитировать]

-Фантомас / Fantomas (1964) BDRip [720p]
« Внимание! Через несколько минут вас посетит Фантомас! »
- Год выпуска: 1964
Производство: Франция, Италия | Gaumont International, P.C.M. FIlm, P.A.C.
Жанр: Комедия, Криминал, Приключения
Режиссер: Андре Юнебель
Продюсер: Лучиано Эрколи, Сирил Грайз, Альберто Пульезе
Актеры: Жан Маре, Луи де Фюнес, Милен Демонжо, Жак Динам, Робер Дальбан, Мари-Элен Арно, Анн-Мари Пейссон, Кристиан Тома, Мишель Дюпле, Андре Таинси, Хьюс Уоннер, Анри Атталь, Жак Бергер, Пьер Колле
Описание фильма: Первый фильм трилогии о невероятных приключениях комиссара Жюва, преследующего неуловимого преступника Фантомаса. Париж потрясен сенсационными и дерзкими преступлениями, совершенными таинственным злодеем по имени Фантомас. На его поимку брошены все силы полиции, но Фантомас практически неуловим - он все время меняет облик, ловко ускользая из рук правосудия. Напасть на его след удается только комиссару Жюву с помощью Элен, подруги похищенного журналиста Фандора.
Перевод: Профессиональный дублированный, профессиональный многоголосый
Вид субтитров: Вшитые отключаемые
Язык субтитров: Русский, французский- -Дата мировой премьеры: 4 ноября 1964
Дата российской премьеры: 27 марта 2008, «Союз-Видео»
Продолжительность: 01:44:16
Возраст 12+: Зрителям, достигшим 12 лет
Качество видео: BDRip [720p]
Видео: MPEG-4 AVC/H.264, 7000 Kbps, 1280 x 542
Аудио 1: Русский AC3 2.0, 192 Kbps, 48.0 KHz (Полное дублирование) Союзмультфильм
Аудио 2: Русский AC3 2.0, 256 Kbps, 48.0 KHz (Многоголосый закадровый) Film Prestige
Аудио 3: Французский DTS 2.0, 768 Kbps, 48.0 KHz (Оригинал)-

Blu-ray

MediaInfo

Общее
Полное имя : Фантомас I.mkv
Формат : Matroska
Версия формата : Version 1
Размер файла : 5,99 Гбайт
Продолжительность : 1 ч. 44 м.
Общий поток : 8221 Кбит/сек
Дата кодирования : UTC 2014-12-02 18:50:46
Программа кодирования : mkvmerge v2.4.1 ('Use Me') built on Dec 5 2008 18:30:05
Библиотека кодирования : libebml v0.7.7 + libmatroska v0.8.1
Видео
Идентификатор : 1
Формат : AVC
Формат/Информация : Advanced Video Codec
Профиль формата : [url=mailto:High@L4.1]High@L4.1[/url]
Параметр CABAC формата : Да
Параметр ReFrames формата : 10 кадров
Идентификатор кодека : V_MPEG4/ISO/AVC
Продолжительность : 1 ч. 44 м.
Битрейт : 7000 Кбит/сек
Ширина : 1280 пикселей
Высота : 542 пикселя
Соотношение сторон : 2,35:1
Режим частоты кадров : Постоянный
Частота кадров : 24,000 кадра/сек
Цветовое пространство : YUV
Субдискретизация насыщенности : 4:2:0
Битовая глубина : 8 бит
Тип развёртки : Прогрессивная
Бит/(Пиксели*Кадры) : 0.420
Размер потока : 4,98 Гбайт (83%)
Заголовок : Фантомас (1964)
Библиотека кодирования : x264 core 138 r2358 9e941d1
Настройки программы : cabac=1 / ref=10 / deblock=1:-3:-3 / analyse=0x3:0x133 / me=umh / subme=10 / psy=1 / psy_rd=1.00:0.10 / mixed_ref=1 / me_range=48 / chroma_me=1 / trellis=2 / 8x8dct=1 / cqm=0 / deadzone=21,11 / fast_pskip=0 / chroma_qp_offset=-3 / threads=6 / lookahead_threads=1 / sliced_threads=0 / nr=0 / decimate=1 / interlaced=0 / bluray_compat=0 / constrained_intra=0 / bframes=5 / b_pyramid=2 / b_adapt=2 / b_bias=0 / direct=3 / weightb=1 / open_gop=0 / weightp=2 / keyint=240 / keyint_min=22 / scenecut=40 / intra_refresh=0 / rc_lookahead=40 / rc=2pass / mbtree=1 / bitrate=7000 / ratetol=1.0 / qcomp=0.60 / qpmin=10 / qpmax=51 / qpstep=4 / cplxblur=20.0 / qblur=0.5 / ip_ratio=1.40 / aq=1:1.00
Язык : French
Аудио #1
Идентификатор : 2
Формат : AC-3
Формат/Информация : Audio Coding 3
Профиль формата : Dolby Digital
Расширение режима : CM (complete main)
Параметр Endianness формата : Big
Идентификатор кодека : A_AC3
Продолжительность : 1 ч. 44 м.
Вид битрейта : Постоянный
Битрейт : 192 Кбит/сек
Каналы : 2 канала
Расположение каналов : Front: L R
Частота : 48,0 КГц
Битовая глубина : 16 бит
Метод сжатия : С потерями
Размер потока : 143 Мбайт (2%)
Заголовок : AC3 (Дублированный) Союзмультфильм
Язык : Russian
Аудио #2
Идентификатор : 3
Формат : AC-3
Формат/Информация : Audio Coding 3
Профиль формата : Dolby Digital
Расширение режима : CM (complete main)
Параметр Endianness формата : Big
Идентификатор кодека : A_AC3
Продолжительность : 1 ч. 44 м.
Вид битрейта : Постоянный
Битрейт : 256 Кбит/сек
Каналы : 2 канала
Расположение каналов : Front: L R
Частота : 48,0 КГц
Битовая глубина : 16 бит
Метод сжатия : С потерями
Размер потока : 191 Мбайт (3%)
Заголовок : AC3 (Многоголосый) Film Prestige
Язык : Russian
Аудио #3
Идентификатор : 4
Формат : DTS
Формат/Информация : Digital Theater Systems
Режим : 16
Параметр Endianness формата : Big
Идентификатор кодека : A_DTS
Продолжительность : 1 ч. 44 м.
Вид битрейта : Постоянный
Битрейт : 768 Кбит/сек
Каналы : 2 канала
Расположение каналов : Front: L R
Частота : 48,0 КГц
Битовая глубина : 16 бит
Метод сжатия : С потерями
Размер потока : 573 Мбайт (9%)
Заголовок : DTS (Оригинал)
Язык : French
Текст #1
Идентификатор : 5
Формат : UTF-8
Идентификатор кодека : S_TEXT/UTF8
Идентификатор кодека/Информация : UTF-8 Plain Text
Заголовок : Русские
Язык : Russian
Текст #2
Идентификатор : 6
Формат : UTF-8
Идентификатор кодека : S_TEXT/UTF8
Идентификатор кодека/Информация : UTF-8 Plain Text
Заголовок : Французские
Язык : French

Дополнительно

● В основу фильмов о Фантомасе («Фантомас» (1964), «Фантомас разбушевался» (1965), «Фантомас против Скотланд-Ярда» (1966)) положена бульварная серия романов, выпущенная в начале 20 века.
● В Италии фильм вышел под названием «Фантомас-70».
● Показ этого фильма в СССР привел к некоторым эксцессам в подростковой среде. Это было обусловлено тем, что в то время в советском прокате отсутствовали криминальные боевики, и подростки восприняли комедийный фильм «Фантомас» слишком серьезно.
● Премьера в США состоялась лишь спустя 1,5 года - 5 апреля 1966 года.
● «Фантомасы» - прозвище, которое получила надевавшая во время ограблений черные чулки банда братьев Толстопятовых, действовавшая в Ростове-на-Дону.
● «Фантомас» 1964-го года - четвертая экранизация произведения о неуловимом преступнике. Режиссер Луи Фейад первым решился экранизировать произведение Пьера Сувестра и Марселя Аллена в 1913 году. Его экранизация представляла собой серию немых часовых фильмов — «Жюв против Фантомаса» (1913), «Фантомас, человек для гильотины» (1913), «Смерть, которая убивает» (1913) и др.
● Фильм занимает 26-е место по посещаемости среди зарубежных лент в советском кинопрокате.
-Скриншоты:
-Фантомас разбушевался / Fantomas se dechaine (1965) BDRip [720p]
« Мы еще встретимся, Фантомас! »
- Год выпуска: 1965
Производство: Франция, Италия | Gaumont International, Da Ma Produzione, Story Film, Victory Film, P.A.C.
Жанр: Комедия, Криминал, Приключения
Режиссер: Андре Юнебель
Продюсер: Пол Кадеак, Ален Пуаре
Актеры: Жан Маре, Луи де Фюнес, Милен Демонжо, Жак Динам, Робер Дальбан, Альбер Даньян, Кристиан Тома, Мишель Дюпле, Оливье Де Фюнес, Флоранс Бло, Робер Ле Беаль, Пьетро Торди, Анри Атталь, Доминик Зарди
Описание фильма: Спустя год после того, как комиссар Жюв и репортер Фандор упустили Фантомаса, суперпреступник вновь дал о себе знать, похитив известного ученого. Следующей жертвой должен стать его помощник, профессор Лефевр. Фандор, выдавая себя за профессора, едет в Рим и… попадает прямо в руки Фантомаса. Спеша на выручку, Жюв и Элен сами попадают в ловушку. Теперь приходится думать, как спасаться самим и сбежать из логова Фантомаса.
Перевод: Профессиональный дублированный, профессиональный многоголосый
Вид субтитров: Вшитые отключаемые
Язык субтитров: Русский, французский- -Дата мировой премьеры: 8 декабря 1965
Дата российской премьеры: 10 апреля 2008, «Союз-Видео»
Продолжительность: 01:38:49
Возраст 12+: Зрителям, достигшим 12 лет
Качество видео: BDRip [720p]
Видео: MPEG-4 AVC/H.264, 7000 Kbps, 1280 x 542
Аудио 1: Русский AC3 2.0, 192 Kbps, 48.0 KHz (Полное дублирование) Союзмультфильм
Аудио 2: Русский AC3 2.0, 256 Kbps, 48.0 KHz (Многоголосый закадровый) Film Prestige
Аудио 3: Французский DTS 2.0, 768 Kbps, 48.0 KHz (Оригинал)-

Blu-ray

MediaInfo

Общее
Полное имя : Фантомас II.mkv
Формат : Matroska
Версия формата : Version 1
Размер файла : 5,67 Гбайт
Продолжительность : 1 ч. 38 м.
Общий поток : 8221 Кбит/сек
Дата кодирования : UTC 2014-12-03 02:51:49
Программа кодирования : mkvmerge v2.4.1 ('Use Me') built on Dec 5 2008 18:30:05
Библиотека кодирования : libebml v0.7.7 + libmatroska v0.8.1
Видео
Идентификатор : 1
Формат : AVC
Формат/Информация : Advanced Video Codec
Профиль формата : [url=mailto:High@L4.1]High@L4.1[/url]
Параметр CABAC формата : Да
Параметр ReFrames формата : 10 кадров
Идентификатор кодека : V_MPEG4/ISO/AVC
Продолжительность : 1 ч. 38 м.
Битрейт : 7000 Кбит/сек
Ширина : 1280 пикселей
Высота : 542 пикселя
Соотношение сторон : 2,35:1
Режим частоты кадров : Постоянный
Частота кадров : 24,000 кадра/сек
Цветовое пространство : YUV
Субдискретизация насыщенности : 4:2:0
Битовая глубина : 8 бит
Тип развёртки : Прогрессивная
Бит/(Пиксели*Кадры) : 0.420
Размер потока : 4,72 Гбайт (83%)
Заголовок : Фантомас разбушевался (1965)
Библиотека кодирования : x264 core 138 r2358 9e941d1
Настройки программы : cabac=1 / ref=10 / deblock=1:-3:-3 / analyse=0x3:0x133 / me=umh / subme=10 / psy=1 / psy_rd=1.00:0.10 / mixed_ref=1 / me_range=48 / chroma_me=1 / trellis=2 / 8x8dct=1 / cqm=0 / deadzone=21,11 / fast_pskip=0 / chroma_qp_offset=-3 / threads=6 / lookahead_threads=1 / sliced_threads=0 / nr=0 / decimate=1 / interlaced=0 / bluray_compat=0 / constrained_intra=0 / bframes=5 / b_pyramid=2 / b_adapt=2 / b_bias=0 / direct=3 / weightb=1 / open_gop=0 / weightp=2 / keyint=240 / keyint_min=22 / scenecut=40 / intra_refresh=0 / rc_lookahead=40 / rc=2pass / mbtree=1 / bitrate=7000 / ratetol=1.0 / qcomp=0.60 / qpmin=10 / qpmax=51 / qpstep=4 / cplxblur=20.0 / qblur=0.5 / ip_ratio=1.40 / aq=1:1.00
Язык : French
Аудио #1
Идентификатор : 2
Формат : AC-3
Формат/Информация : Audio Coding 3
Профиль формата : Dolby Digital
Расширение режима : CM (complete main)
Параметр Endianness формата : Big
Идентификатор кодека : A_AC3
Продолжительность : 1 ч. 38 м.
Вид битрейта : Постоянный
Битрейт : 192 Кбит/сек
Каналы : 2 канала
Расположение каналов : Front: L R
Частота : 48,0 КГц
Битовая глубина : 16 бит
Метод сжатия : С потерями
Размер потока : 136 Мбайт (2%)
Заголовок : AC3 (Дублированный) Союзмультфильм
Язык : Russian
Аудио #2
Идентификатор : 3
Формат : AC-3
Формат/Информация : Audio Coding 3
Профиль формата : Dolby Digital
Расширение режима : CM (complete main)
Параметр Endianness формата : Big
Идентификатор кодека : A_AC3
Продолжительность : 1 ч. 38 м.
Вид битрейта : Постоянный
Битрейт : 256 Кбит/сек
Каналы : 2 канала
Расположение каналов : Front: L R
Частота : 48,0 КГц
Битовая глубина : 16 бит
Метод сжатия : С потерями
Размер потока : 181 Мбайт (3%)
Заголовок : AC3 (Многоголосый) Film Prestige
Язык : Russian
Аудио #3
Идентификатор : 4
Формат : DTS
Формат/Информация : Digital Theater Systems
Режим : 16
Параметр Endianness формата : Big
Идентификатор кодека : A_DTS
Продолжительность : 1 ч. 38 м.
Вид битрейта : Постоянный
Битрейт : 768 Кбит/сек
Каналы : 2 канала
Расположение каналов : Front: L R
Частота : 48,0 КГц
Битовая глубина : 16 бит
Метод сжатия : С потерями
Размер потока : 543 Мбайт (9%)
Заголовок : DTS (Оригинал)
Язык : French
Текст #1
Идентификатор : 5
Формат : UTF-8
Идентификатор кодека : S_TEXT/UTF8
Идентификатор кодека/Информация : UTF-8 Plain Text
Заголовок : Русские
Язык : Russian
Текст #2
Идентификатор : 6
Формат : UTF-8
Идентификатор кодека : S_TEXT/UTF8
Идентификатор кодека/Информация : UTF-8 Plain Text
Заголовок : Французские
Язык : French

Дополнительно

● В качестве летающего автомобиля Фантомаса в фильме использовался Citroën DS.
● Один из постояльцев отеля в Италии говорит на чистом русском языке. Те, кто смотрел нерусскоязычные версии фильма, уже убедились в этом. Если же есть сомнения, то можно проследить за артикуляцией актёра, исполняющего эту роль.
● Во время съёмок финальной сцены Луи де Фюнес, выполняя трюк сам, выпал из аэроплана на кусты роз. Неделю актер провёл в больнице.
● Фильм занимает 29-е место по посещаемости среди зарубежных лент в советском кинопрокате.
● «Лицо» профессора Лефевра - это маска подставного надсмотрщика тюрьмы из фильма «Фантомас». Обоих играет Жан Маре.
-Скриншоты:
-Фантомас против Скотланд-Ярда / Fantomas contre Scotland Yard (1967) BDRip [720p]
« Держите его, это Фантомас! »
- Год выпуска: 1967
Производство: Франция, Италия | Gaumont International, Fair Film, P.A.C.
Жанр: Комедия, Криминал, Приключения
Режиссер: Андре Юнебель
Продюсер: Пол Кадеак, Ален Пуаре
Актеры: Жан Маре, Луи де Фюнес, Милен Демонжо, Жак Динам, Франсуаза Кристоф, Жан-Роже Коссимон, Робер Дальбан, Андре Дюма, Макс Монтавон, Рита Ренуар, Жан Озенн, Анри Серр, Анри Атталь, Антуан Бо
Описание фильма: На этот раз злодей с тысячью лицами решает обложить данью богатейших людей мира, а взамен гарантирует им жизнь. Комиссар Жюв со своими верными друзьями, Фандором и Элен, прибывает в шотландский замок для того, чтобы встать на защиту его владельца и снова попытаться поймать Фантомаса.
Перевод: Профессиональный дублированный, профессиональный многоголосый
Вид субтитров: Вшитые отключаемые
Язык субтитров: Русский, французский- -Дата мировой премьеры: 16 марта 1967
Дата российской премьеры: 17 апреля 2008, «Союз-Видео»
Продолжительность: 01:40:59
Возраст 12+: Зрителям, достигшим 12 лет
Качество видео: BDRip [720p]
Видео: MPEG-4 AVC/H.264, 7000 Kbps, 1280 x 542
Аудио 1: Русский AC3 2.0, 192 Kbps, 48.0 KHz (Полное дублирование) Союзмультфильм
Аудио 2: Русский AC3 2.0, 256 Kbps, 48.0 KHz (Многоголосый закадровый) Film Prestige
Аудио 3: Французский DTS 2.0, 768 Kbps, 48.0 KHz (Оригинал)-

Blu-ray

MediaInfo

Общее
Полное имя : Фантомас III.mkv
Формат : Matroska
Версия формата : Version 1
Размер файла : 5,80 Гбайт
Продолжительность : 1 ч. 40 м.
Общий поток : 8221 Кбит/сек
Дата кодирования : UTC 2014-12-03 03:24:00
Программа кодирования : mkvmerge v2.4.1 ('Use Me') built on Dec 5 2008 18:30:05
Библиотека кодирования : libebml v0.7.7 + libmatroska v0.8.1
Видео
Идентификатор : 1
Формат : AVC
Формат/Информация : Advanced Video Codec
Профиль формата : [url=mailto:High@L4.1]High@L4.1[/url]
Параметр CABAC формата : Да
Параметр ReFrames формата : 10 кадров
Идентификатор кодека : V_MPEG4/ISO/AVC
Продолжительность : 1 ч. 40 м.
Битрейт : 7000 Кбит/сек
Ширина : 1280 пикселей
Высота : 542 пикселя
Соотношение сторон : 2,35:1
Режим частоты кадров : Постоянный
Частота кадров : 24,000 кадра/сек
Цветовое пространство : YUV
Субдискретизация насыщенности : 4:2:0
Битовая глубина : 8 бит
Тип развёртки : Прогрессивная
Бит/(Пиксели*Кадры) : 0.420
Размер потока : 4,83 Гбайт (83%)
Заголовок : Фантомас против Скотланд-Ярда (1966)
Библиотека кодирования : x264 core 138 r2358 9e941d1
Настройки программы : cabac=1 / ref=10 / deblock=1:-3:-3 / analyse=0x3:0x133 / me=umh / subme=10 / psy=1 / psy_rd=1.00:0.10 / mixed_ref=1 / me_range=48 / chroma_me=1 / trellis=2 / 8x8dct=1 / cqm=0 / deadzone=21,11 / fast_pskip=0 / chroma_qp_offset=-3 / threads=6 / lookahead_threads=1 / sliced_threads=0 / nr=0 / decimate=1 / interlaced=0 / bluray_compat=0 / constrained_intra=0 / bframes=5 / b_pyramid=2 / b_adapt=2 / b_bias=0 / direct=3 / weightb=1 / open_gop=0 / weightp=2 / keyint=240 / keyint_min=22 / scenecut=40 / intra_refresh=0 / rc_lookahead=40 / rc=2pass / mbtree=1 / bitrate=7000 / ratetol=1.0 / qcomp=0.60 / qpmin=10 / qpmax=51 / qpstep=4 / cplxblur=20.0 / qblur=0.5 / ip_ratio=1.40 / aq=1:1.00
Язык : French
Аудио #1
Идентификатор : 2
Формат : AC-3
Формат/Информация : Audio Coding 3
Профиль формата : Dolby Digital
Расширение режима : CM (complete main)
Параметр Endianness формата : Big
Идентификатор кодека : A_AC3
Продолжительность : 1 ч. 40 м.
Вид битрейта : Постоянный
Битрейт : 192 Кбит/сек
Каналы : 2 канала
Расположение каналов : Front: L R
Частота : 48,0 КГц
Битовая глубина : 16 бит
Метод сжатия : С потерями
Размер потока : 139 Мбайт (2%)
Заголовок : AC3 (Дублированный) Союзмультфильм
Язык : Russian
Аудио #2
Идентификатор : 3
Формат : AC-3
Формат/Информация : Audio Coding 3
Профиль формата : Dolby Digital
Расширение режима : CM (complete main)
Параметр Endianness формата : Big
Идентификатор кодека : A_AC3
Продолжительность : 1 ч. 40 м.
Вид битрейта : Постоянный
Битрейт : 256 Кбит/сек
Каналы : 2 канала
Расположение каналов : Front: L R
Частота : 48,0 КГц
Битовая глубина : 16 бит
Метод сжатия : С потерями
Размер потока : 185 Мбайт (3%)
Заголовок : AC3 (Многоголосый) Film Prestige
Язык : Russian
Аудио #3
Идентификатор : 4
Формат : DTS
Формат/Информация : Digital Theater Systems
Режим : 16
Параметр Endianness формата : Big
Идентификатор кодека : A_DTS
Продолжительность : 1 ч. 40 м.
Вид битрейта : Постоянный
Битрейт : 768 Кбит/сек
Каналы : 2 канала
Расположение каналов : Front: L R
Частота : 48,0 КГц
Битовая глубина : 16 бит
Метод сжатия : С потерями
Размер потока : 555 Мбайт (9%)
Заголовок : DTS (Оригинал)
Язык : French
Текст #1
Идентификатор : 5
Формат : UTF-8
Идентификатор кодека : S_TEXT/UTF8
Идентификатор кодека/Информация : UTF-8 Plain Text
Заголовок : Русские
Язык : Russian
Текст #2
Идентификатор : 6
Формат : UTF-8
Идентификатор кодека : S_TEXT/UTF8
Идентификатор кодека/Информация : UTF-8 Plain Text
Заголовок : Французские
Язык : French

Дополнительно

● Махаражда Кемпуры на совещании у лорда МакРашли говорит на чистом русском языке.
● Занимает 88-е место по посещаемости среди зарубежных фильмов в советском кинопрокате.
● «Лицо» Уолтера Брауна - это «маска» лорда Шелтона, подставного покупателя драгоценностей из фильма «Фантомас», а «Лицо» гангстера Джузеппе - маска маркиза де Растелли из фильма «Фантомас разбушевался». Всех этих персонажей играет Жан Маре.
-Скриншоты:
[Профиль] [ЛС]
Кто просматривает тему:

Форум Тема Автор Размер
Discovery Discovery: Мастерская Фантом Уоркс / Fantom Works [02х01-06 из 12] (2014) HDTVRip от GeneralFilm | P1 Swager 3.2 GB
Кино СССР Анискин и Фантомас (Михаил Жаров, Владимир Рапопорт) [1973, детектив, DVDRip] Russian Mafia 2.05 GB
Зарубежные сериалы Призрак / Фантом / Тень / Yoo-ryeong / Ghost / Phantom [01-20 из 20] (2012) HDTVRip 720p | L2 Белочка 28.64 GB
Зарубежные сериалы Призрак / Фантом / Тень / Yoo-ryeong / Ghost / Phantom [01-20 из 20] (2012) HDTVRip | L2 Белочка 14.25 GB
Классика зарубежного кино Фантомас / Fantomas (Андре Юнебель / André Hunebelle) [1964 г., Комедия, криминал, приключения, HDRip] MVO Russian Mafia 744 MB
Классика зарубежного кино Фантомас / Fantomas (Андре Юнебель / Andre Hunebelle) [1964, комедия, приключения, криминал, BDRip] MVO + DUB (Советсткий дубляж) + Original + Subs (Rus, Eng, fre) Russian Mafia 2.19 GB
Классика зарубежного кино Фантомас против Скотланд-Ярда / Fantomas Contre Scotland Yard (Андре Юнебель / André Hunebelle) [1967 г., Комедия, криминал, приключения, HDRip] Dub Russian Mafia 744 MB
Классика зарубежного кино Фантомас против Скотланд-Ярда / Fantomas contre Scotland Yard (Андре Юнебель / Andre Hunebelle) [1967, Франция, Италия, комедия, криминал, приключения, BDRip] MVO + DUB (Союзмультфильм) + Original +... Russian Mafia 2.07 GB
Показать сообщения:    

Текущее время: Сегодня 14:34

Часовой пояс: GMT



Вы не можете начинать темы
Вы не можете отвечать на сообщения
Вы не можете редактировать свои сообщения
Вы не можете удалять свои сообщения
Вы не можете голосовать в опросах
Вы не можете прикреплять файлы к сообщениям
Вы не можете скачивать файлы