Фантомас разбушевался / Fantomas se dechaine (Андре Юнебель / Andre Hunebelle) [1965, Андре Юнебель / Andre Hunebelle, комедия, криминал, приключения, BDRip] MVO (Аскот)

 
Автор Сообщение

Russian Mafia ®

Пол:

Стаж: 1 год 8 месяцев

Сообщений: 4247



Награды: 10 (Подробнее)

Top Releaser 5 (Количество: 1) Mega Seeder 1 (Количество: 1) Top Releaser 2 (Количество: 1)
Торрент-статистика

Создавать темы 22-Мар-2016 17:11

[Цитировать]

Фантомас разбушевался / Fantomas se dechaine
Страна: Франция, Италия
Жанр: комедия, криминал, приключения
Год выпуска: 1965
Продолжительность: 01:38:49
Перевод: Профессиональный (многоголосый закадровый) Региональное ТВ студия "Аскот" СПб (1994)
Роли озвучивали:Станислав Канцевич, Генадий Богачев, Елена Павловская, Михаил Морозов, Александр Хочинский, Олег Куликович
Cубтитры: нет
Оригинальная аудиодорожка: нет
Режиссер: Андре Юнебель / Andre Hunebelle
В ролях: Жан Марэ, Луи де Фюнес, Милен Демонжо, Жак Динам, Робер Дальбан, Альбер Даньян, Кристиан Тома, Мишель Дюпле, Оливье Де Фюнес, Флоранс Бло, Робер Ле Беаль, Пьетро Торди, Анри Атталь, Доминик Зарди, Жак Марен, Макс Монтавон, Жан Мико, Мино Доро, Иван Шиффр, Антуан Бо, Андре Каньяр, Артуро Доминичи, Боб Морел, Антуан Марен, Боб Лерик, Альбер Домерг, Жерар Муасан
Описание: По мотивам авантюрных романов Марселя Аллена и Пьера Сувестра. Второй из трёх фильмов о Фантомасе с Луи де Фюнесом и Жаном Маре в главных ролях. С того момента, как Фантомас сумел уйти от Жюва и Фандора прошел год. Долгое время никто не слышал о Фантомасе и люди уже стали надеяться на то, что больше они о нем никогда и не услышат. Но вот Фантомас совершает свое новое преступление – он похищает известного ученого. Следующей жертвой должен стать помощник этого ученого, профессор Лефевр. Фандор решает выдать себя за Лефевра, и Фантомас похищает Фандора вместо Лефевра. Жюв и Элен спешат на выручку другу, но попадают в ловушку, подготовленную для них Фантомасом…
Качество видео: BDRip
Формат видео: AVI
Видео: XviD build 73, 720x304 (2.35:1), 24.00 fps, 1917 kbps, 23.976 fps avg
Аудио: Russian AC3 Dolby Digital, 48 kHz, 2/0 (L,R) ch, 192.00 kbps avg

MediaInfo

General
Complete name : D:\Fantomas.se.dechaine_1965\Fantomas se dechaine_1965.HDRip.MVO Askot.avi
Format : AVI
Format/Info : Audio Video Interleave
File size : 1.46 GiB
Duration : 1h 38mn
Overall bit rate : 2 118 Kbps
Writing application : VirtualDubModRus 1.5.10.2 (build 2542/release)
Writing library : VirtualDubMod build 2542/release
Video
ID : 0
Format : MPEG-4 Visual
Format profile : Advanced Simple@L5
Format settings, BVOP : 1
Format settings, QPel : No
Format settings, GMC : No warppoints
Format settings, Matrix : Custom
Codec ID : XVID
Codec ID/Hint : XviD
Duration : 1h 38mn
Bit rate : 1 917 Kbps
Width : 720 pixels
Height : 304 pixels
Display aspect ratio : 2.35:1
Frame rate : 24.000 fps
Color space : YUV
Chroma subsampling : 4:2:0
Bit depth : 8 bits
Scan type : Progressive
Compression mode : Lossy
Bits/(Pixel*Frame) : 0.365
Stream size : 1.32 GiB (90%)
Writing library : XviD 73
Audio
ID : 1
Format : AC-3
Format/Info : Audio Coding 3
Mode extension : CM (complete main)
Format settings, Endianness : Big
Codec ID : 2000
Duration : 1h 38mn
Bit rate mode : Constant
Bit rate : 192 Kbps
Channel(s) : 2 channels
Channel positions : Front: L R
Sampling rate : 48.0 KHz
Bit depth : 16 bits
Compression mode : Lossy
Stream size : 136 MiB (9%)
Alignment : Split accross interleaves
Interleave, duration : 42 ms (1.00 video frame)
Interleave, preload duration : 500 ms

Скриншоты

[Профиль] [ЛС]
Кто просматривает тему:

Форум Тема Автор Размер
Discovery Discovery: Мастерская Фантом Уоркс / Fantom Works [02х01-06 из 12] (2014) HDTVRip от GeneralFilm | P1 Swager 3.2 GB
Кино СССР Анискин и Фантомас (Михаил Жаров, Владимир Рапопорт) [1973, детектив, DVDRip] Russian Mafia 2.05 GB
Зарубежные сериалы Призрак / Фантом / Тень / Yoo-ryeong / Ghost / Phantom [01-20 из 20] (2012) HDTVRip 720p | L2 Белочка 28.64 GB
Зарубежные сериалы Призрак / Фантом / Тень / Yoo-ryeong / Ghost / Phantom [01-20 из 20] (2012) HDTVRip | L2 Белочка 14.25 GB
Классика зарубежного кино Фантомас / Fantomas (Андре Юнебель / André Hunebelle) [1964 г., Комедия, криминал, приключения, HDRip] MVO Russian Mafia 744 MB
Классика зарубежного кино Фантомас / Fantomas (Андре Юнебель / Andre Hunebelle) [1964, комедия, приключения, криминал, BDRip] MVO + DUB (Советсткий дубляж) + Original + Subs (Rus, Eng, fre) Russian Mafia 2.19 GB
Классика зарубежного кино Фантомас против Скотланд-Ярда / Fantomas Contre Scotland Yard (Андре Юнебель / André Hunebelle) [1967 г., Комедия, криминал, приключения, HDRip] Dub Russian Mafia 744 MB
Классика зарубежного кино Фантомас против Скотланд-Ярда / Fantomas contre Scotland Yard (Андре Юнебель / Andre Hunebelle) [1967, Франция, Италия, комедия, криминал, приключения, BDRip] MVO + DUB (Союзмультфильм) + Original +... Russian Mafia 2.07 GB
Показать сообщения:    

Текущее время: Сегодня 06:29

Часовой пояс: GMT



Вы не можете начинать темы
Вы не можете отвечать на сообщения
Вы не можете редактировать свои сообщения
Вы не можете удалять свои сообщения
Вы не можете голосовать в опросах
Вы не можете прикреплять файлы к сообщениям
Вы не можете скачивать файлы